  0
SECTION
  2
HEADER
  9
$ACADVER
  1
AC1015
  9
$ACADMAINTVER
 70
     6
  9
$DWGCODEPAGE
  3
ANSI_1252
  9
$INSBASE
 10
0.0
 20
0.0
 30
0.0
  9
$EXTMIN
 10
0.0
 20
0.0
 30
0.0
  9
$EXTMAX
 10
210.0
 20
297.0
 30
0.0
  9
$LIMMIN
 10
0.0
 20
0.0
  9
$LIMMAX
 10
210.0
 20
297.0
  9
$ORTHOMODE
 70
     0
  9
$REGENMODE
 70
     1
  9
$FILLMODE
 70
     1
  9
$QTEXTMODE
 70
     0
  9
$MIRRTEXT
 70
     1
  9
$LTSCALE
 40
1.0
  9
$ATTMODE
 70
     1
  9
$TEXTSIZE
 40
3.5
  9
$TRACEWID
 40
1.0
  9
$TEXTSTYLE
  7
Standard
  9
$CLAYER
  8
0
  9
$CELTYPE
  6
ByLayer
  9
$CECOLOR
 62
   256
  9
$CELTSCALE
 40
1.0
  9
$DISPSILH
 70
     0
  9
$DIMSCALE
 40
1.0
  9
$DIMASZ
 40
3.302
  9
$DIMEXO
 40
0.0
  9
$DIMDLI
 40
3.75
  9
$DIMRND
 40
0.0
  9
$DIMDLE
 40
0.0
  9
$DIMEXE
 40
1.0
  9
$DIMTP
 40
0.0
  9
$DIMTM
 40
0.0
  9
$DIMTXT
 40
3.5
  9
$DIMCEN
 40
2.5
  9
$DIMTSZ
 40
0.0
  9
$DIMTOL
 70
     0
  9
$DIMLIM
 70
     0
  9
$DIMTIH
 70
     1
  9
$DIMTOH
 70
     1
  9
$DIMSE1
 70
     0
  9
$DIMSE2
 70
     0
  9
$DIMTAD
 70
     1
  9
$DIMZIN
 70
     0
  9
$DIMBLK
  1

  9
$DIMASO
 70
     1
  9
$DIMSHO
 70
     1
  9
$DIMPOST
  1

  9
$DIMAPOST
  1

  9
$DIMALT
 70
     0
  9
$DIMALTD
 70
     3
  9
$DIMALTF
 40
0.0393700787
  9
$DIMLFAC
 40
1.0
  9
$DIMTOFL
 70
     1
  9
$DIMTVP
 40
0.0
  9
$DIMTIX
 70
     0
  9
$DIMSOXD
 70
     0
  9
$DIMSAH
 70
     0
  9
$DIMBLK1
  1

  9
$DIMBLK2
  1

  9
$DIMSTYLE
  2
ISO-25
  9
$DIMCLRD
 70
     0
  9
$DIMCLRE
 70
     0
  9
$DIMCLRT
 70
     0
  9
$DIMTFAC
 40
1.0
  9
$DIMGAP
 40
3.0
  9
$DIMJUST
 70
     0
  9
$DIMSD1
 70
     0
  9
$DIMSD2
 70
     0
  9
$DIMTOLJ
 70
     0
  9
$DIMTZIN
 70
     0
  9
$DIMALTZ
 70
     0
  9
$DIMALTTZ
 70
     0
  9
$DIMUPT
 70
     0
  9
$DIMDEC
 70
     2
  9
$DIMTDEC
 70
     2
  9
$DIMALTU
 70
     2
  9
$DIMALTTD
 70
     3
  9
$DIMTXSTY
  7
Standard
  9
$DIMAUNIT
 70
     0
  9
$DIMADEC
 70
     2
  9
$DIMALTRND
 40
0.0
  9
$DIMAZIN
 70
     0
  9
$DIMDSEP
 70
    44
  9
$DIMATFIT
 70
     3
  9
$DIMFRAC
 70
     0
  9
$DIMLDRBLK
  1

  9
$DIMLUNIT
 70
     2
  9
$DIMLWD
 70
    -2
  9
$DIMLWE
 70
    -2
  9
$DIMTMOVE
 70
     0
  9
$LUNITS
 70
     2
  9
$LUPREC
 70
     2
  9
$SKETCHINC
 40
1.0
  9
$FILLETRAD
 40
10.0
  9
$AUNITS
 70
     0
  9
$AUPREC
 70
     2
  9
$MENU
  1
.
  9
$ELEVATION
 40
0.0
  9
$PELEVATION
 40
0.0
  9
$THICKNESS
 40
0.0
  9
$LIMCHECK
 70
     0
  9
$CHAMFERA
 40
10.0
  9
$CHAMFERB
 40
10.0
  9
$CHAMFERC
 40
20.0
  9
$CHAMFERD
 40
0.0
  9
$SKPOLY
 70
     0
  9
$TDCREATE
 40
2455881.471786238
  9
$TDUCREATE
 40
2455881.430119572
  9
$TDUPDATE
 40
2455881.47178625
  9
$TDUUPDATE
 40
2455881.430119583
  9
$TDINDWG
 40
0.0000000116
  9
$TDUSRTIMER
 40
0.0000000116
  9
$USRTIMER
 70
     1
  9
$ANGBASE
 50
0.0
  9
$ANGDIR
 70
     0
  9
$PDMODE
 70
     0
  9
$PDSIZE
 40
-1.0
  9
$PLINEWID
 40
0.0
  9
$SPLFRAME
 70
     0
  9
$SPLINETYPE
 70
     6
  9
$SPLINESEGS
 70
     8
  9
$HANDSEED
  5
611
  9
$SURFTAB1
 70
     6
  9
$SURFTAB2
 70
     6
  9
$SURFTYPE
 70
     6
  9
$SURFU
 70
     6
  9
$SURFV
 70
     6
  9
$UCSBASE
  2

  9
$UCSNAME
  2

  9
$UCSORG
 10
0.0
 20
0.0
 30
0.0
  9
$UCSXDIR
 10
1.0
 20
0.0
 30
0.0
  9
$UCSYDIR
 10
0.0
 20
1.0
 30
0.0
  9
$UCSORTHOREF
  2

  9
$UCSORTHOVIEW
 70
     0
  9
$UCSORGTOP
 10
0.0
 20
0.0
 30
0.0
  9
$UCSORGBOTTOM
 10
0.0
 20
0.0
 30
0.0
  9
$UCSORGLEFT
 10
0.0
 20
0.0
 30
0.0
  9
$UCSORGRIGHT
 10
0.0
 20
0.0
 30
0.0
  9
$UCSORGFRONT
 10
0.0
 20
0.0
 30
0.0
  9
$UCSORGBACK
 10
0.0
 20
0.0
 30
0.0
  9
$PUCSBASE
  2

  9
$PUCSNAME
  2

  9
$PUCSORG
 10
0.0
 20
0.0
 30
0.0
  9
$PUCSXDIR
 10
1.0
 20
0.0
 30
0.0
  9
$PUCSYDIR
 10
0.0
 20
1.0
 30
0.0
  9
$PUCSORTHOREF
  2

  9
$PUCSORTHOVIEW
 70
     0
  9
$PUCSORGTOP
 10
0.0
 20
0.0
 30
0.0
  9
$PUCSORGBOTTOM
 10
0.0
 20
0.0
 30
0.0
  9
$PUCSORGLEFT
 10
0.0
 20
0.0
 30
0.0
  9
$PUCSORGRIGHT
 10
0.0
 20
0.0
 30
0.0
  9
$PUCSORGFRONT
 10
0.0
 20
0.0
 30
0.0
  9
$PUCSORGBACK
 10
0.0
 20
0.0
 30
0.0
  9
$USERI1
 70
     0
  9
$USERI2
 70
     0
  9
$USERI3
 70
     0
  9
$USERI4
 70
     0
  9
$USERI5
 70
     0
  9
$USERR1
 40
0.0
  9
$USERR2
 40
0.0
  9
$USERR3
 40
0.0
  9
$USERR4
 40
0.0
  9
$USERR5
 40
0.0
  9
$WORLDVIEW
 70
     1
  9
$SHADEDGE
 70
     3
  9
$SHADEDIF
 70
    70
  9
$TILEMODE
 70
     1
  9
$MAXACTVP
 70
    64
  9
$PINSBASE
 10
0.0
 20
0.0
 30
0.0
  9
$PLIMCHECK
 70
     0
  9
$PEXTMIN
 10
1.0000000000E+20
 20
1.0000000000E+20
 30
1.0000000000E+20
  9
$PEXTMAX
 10
-1.0000000000E+20
 20
-1.0000000000E+20
 30
-1.0000000000E+20
  9
$PLIMMIN
 10
0.0
 20
0.0
  9
$PLIMMAX
 10
420.0
 20
297.0
  9
$UNITMODE
 70
     0
  9
$VISRETAIN
 70
     1
  9
$PLINEGEN
 70
     0
  9
$PSLTSCALE
 70
     1
  9
$TREEDEPTH
 70
  3020
  9
$CMLSTYLE
  2
Standard
  9
$CMLJUST
 70
     0
  9
$CMLSCALE
 40
20.0
  9
$PROXYGRAPHICS
 70
     1
  9
$MEASUREMENT
 70
     1
  9
$CELWEIGHT
370
    -1
  9
$ENDCAPS
280
     0
  9
$JOINSTYLE
280
     0
  9
$LWDISPLAY
290
     1
  9
$INSUNITS
 70
     4
  9
$HYPERLINKBASE
  1

  9
$STYLESHEET
  1

  9
$XEDIT
290
     1
  9
$CEPSNTYPE
380
     0
  9
$PSTYLEMODE
290
     1
  9
$FINGERPRINTGUID
  2
{F35B8802-DA80-4242-86D7-C8FDA9C4F332}
  9
$VERSIONGUID
  2
{FAEB1C32-E019-11D5-929B-00C0DF256EC4}
  9
$EXTNAMES
290
     1
  9
$PSVPSCALE
 40
0.0
  9
$OLESTARTUP
290
     0
  0
ENDSEC
  0
SECTION
  2
CLASSES
  0
CLASS
  1
ACDBDICTIONARYWDFLT
  2
AcDbDictionaryWithDefault
  3
ObjectDBX Classes
 90
        0
280
     0
281
     0
  0
CLASS
  1
VISUALSTYLE
  2
AcDbVisualStyle
  3
ObjectDBX Classes
 90
     4095
280
     0
281
     0
  0
CLASS
  1
MATERIAL
  2
AcDbMaterial
  3
ObjectDBX Classes
 90
     1153
280
     0
281
     0
  0
CLASS
  1
SCALE
  2
AcDbScale
  3
ObjectDBX Classes
 90
     1153
280
     0
281
     0
  0
CLASS
  1
DICTIONARYVAR
  2
AcDbDictionaryVar
  3
ObjectDBX Classes
 90
        0
280
     0
281
     0
  0
CLASS
  1
ACDBPLACEHOLDER
  2
AcDbPlaceHolder
  3
ObjectDBX Classes
 90
        0
280
     0
281
     0
  0
CLASS
  1
LAYOUT
  2
AcDbLayout
  3
ObjectDBX Classes
 90
        0
280
     0
281
     0
  0
ENDSEC
  0
SECTION
  2
TABLES
  0
TABLE
  2
VPORT
  5
8
330
0
100
AcDbSymbolTable
 70
     1
  0
VPORT
  5
29
330
8
100
AcDbSymbolTableRecord
100
AcDbViewportTableRecord
  2
*Active
 70
     0
 10
0.0
 20
0.0
 11
1.0
 21
1.0
 12
105.0
 22
148.5
 13
0.0
 23
0.0
 14
10.0
 24
10.0
 15
10.0
 25
10.0
 16
0.0
 26
0.0
 36
1.0
 17
0.0
 27
0.0
 37
0.0
 40
297.0
 41
0.7070707071
 42
50.0
 43
0.0
 44
0.0
 50
0.0
 51
0.0
 71
     0
 72
  2000
 73
     1
 74
     3
 75
     0
 76
     0
 77
     0
 78
     0
281
     0
 65
     1
110
0.0
120
0.0
130
0.0
111
1.0
121
0.0
131
0.0
112
0.0
122
1.0
132
0.0
 79
     0
146
0.0
  0
ENDTAB
  0
TABLE
  2
LTYPE
  5
5
330
0
100
AcDbSymbolTable
 70
     6
  0
LTYPE
  5
14
330
5
100
AcDbSymbolTableRecord
100
AcDbLinetypeTableRecord
  2
ByBlock
 70
     0
  3

 72
    65
 73
     0
 40
0.0
  0
LTYPE
  5
15
330
5
100
AcDbSymbolTableRecord
100
AcDbLinetypeTableRecord
  2
ByLayer
 70
     0
  3

 72
    65
 73
     0
 40
0.0
  0
LTYPE
  5
16
330
5
100
AcDbSymbolTableRecord
100
AcDbLinetypeTableRecord
  2
Continuous
 70
     0
  3
Solid line
 72
    65
 73
     0
 40
0.0
  0
LTYPE
  5
3F
330
5
100
AcDbSymbolTableRecord
100
AcDbLinetypeTableRecord
  2
HIDDEN
 70
     0
  3
Hidden __ __ __ __ __ __ __ __ __ __ __ __ __ __
 72
    65
 73
     2
 40
1.905
 49
1.27
 74
     0
 49
-0.635
 74
     0
  0
LTYPE
  5
40
330
5
100
AcDbSymbolTableRecord
100
AcDbLinetypeTableRecord
  2
PHANTOM
 70
     0
  3
Phantom ______  __  __  ______  __  __  ______
 72
    65
 73
     6
 40
12.7
 49
6.35
 74
     0
 49
-1.27
 74
     0
 49
1.27
 74
     0
 49
-1.27
 74
     0
 49
1.27
 74
     0
 49
-1.27
 74
     0
  0
LTYPE
  5
41
330
5
100
AcDbSymbolTableRecord
100
AcDbLinetypeTableRecord
  2
CENTER
 70
     0
  3
Center ____ _ ____ _ ____ _ ____ _ ____ _ ____
 72
    65
 73
     4
 40
10.16
 49
6.35
 74
     0
 49
-1.27
 74
     0
 49
1.27
 74
     0
 49
-1.27
 74
     0
  0
LTYPE
  5
42
330
5
100
AcDbSymbolTableRecord
100
AcDbLinetypeTableRecord
  2
CENTERX2
 70
     0
  3
Center (2x) ________  __  ________  __  _____
 72
    65
 73
     4
 40
20.32
 49
12.7
 74
     0
 49
-2.54
 74
     0
 49
2.54
 74
     0
 49
-2.54
 74
     0
  0
LTYPE
  5
43
330
5
100
AcDbSymbolTableRecord
100
AcDbLinetypeTableRecord
  2
DOT2
 70
     0
  3
Dot (.5x) ........................................
 72
    65
 73
     2
 40
0.635
 49
0.0
 74
     0
 49
-0.635
 74
     0
  0
ENDTAB
  0
TABLE
  2
LAYER
  5
2
330
0
100
AcDbSymbolTable
 70
     5
  0
LAYER
  5
10
330
2
100
AcDbSymbolTableRecord
100
AcDbLayerTableRecord
  2
0
 70
     0
 62
     7
  6
Continuous
370
    -3
390
F
  0
LAYER
  5
44
330
2
100
AcDbSymbolTableRecord
100
AcDbLayerTableRecord
  2
FORMAT
 70
     0
 62
     7
  6
Continuous
370
    -3
390
F
  0
LAYER
  5
45
330
2
100
AcDbSymbolTableRecord
100
AcDbLayerTableRecord
  2
SCHRIFTFELD
 70
     0
 62
     7
  6
Continuous
370
    -3
390
F
  0
LAYER
  5
46
330
2
100
AcDbSymbolTableRecord
100
AcDbLayerTableRecord
  2
BEARBEITUNG
 70
     0
 62
     7
  6
Continuous
370
    -3
390
F
  0
LAYER
  5
47
330
2
100
AcDbSymbolTableRecord
100
AcDbLayerTableRecord
  2
PASSUNGEN
 70
     0
 62
     7
  6
Continuous
370
    -3
390
F
  0
ENDTAB
  0
TABLE
  2
STYLE
  5
3
330
0
100
AcDbSymbolTable
 70
     9
  0
STYLE
  5
11
330
3
100
AcDbSymbolTableRecord
100
AcDbTextStyleTableRecord
  2
Standard
 70
     0
 40
0.0
 41
1.0
 50
0.0
 71
     0
 42
2.5
  3
txt
  4

  0
STYLE
  5
F8
330
3
100
AcDbSymbolTableRecord
100
AcDbTextStyleTableRecord
  2
SLDTEXTSTYLE0
 70
     0
 40
0.0
 41
0.493877551
 50
0.0
 71
     0
 42
0.2
  3
TXT
  4

  0
STYLE
  5
125
330
3
100
AcDbSymbolTableRecord
100
AcDbTextStyleTableRecord
  2
SLDTEXTSTYLE1
 70
     0
 40
0.0
 41
0.605
 50
0.0
 71
     0
 42
0.2
  3
TXT
  4

  0
STYLE
  5
138
330
3
100
AcDbSymbolTableRecord
100
AcDbTextStyleTableRecord
  2
SLDTEXTSTYLE2
 70
     0
 40
0.0
 41
0.75
 50
0.0
 71
     0
 42
0.2
  3
TXT
  4

  0
STYLE
  5
19A
330
3
100
AcDbSymbolTableRecord
100
AcDbTextStyleTableRecord
  2
SLDTEXTSTYLE3
 70
     0
 40
0.0
 41
0.3993115753
 50
0.0
 71
     0
 42
0.2
  3
TXT
  4

  0
STYLE
  5
19C
330
3
100
AcDbSymbolTableRecord
100
AcDbTextStyleTableRecord
  2
SLDTEXTSTYLE4
 70
     0
 40
0.0
 41
0.4167091837
 50
0.0
 71
     0
 42
0.2
  3
TXT
  4

  0
STYLE
  5
1A5
330
3
100
AcDbSymbolTableRecord
100
AcDbTextStyleTableRecord
  2
SLDTEXTSTYLE5
 70
     0
 40
0.0
 41
0.3935123724
 50
0.0
 71
     0
 42
0.2
  3
TXT
  4

  0
STYLE
  5
1AC
330
3
100
AcDbSymbolTableRecord
100
AcDbTextStyleTableRecord
  2
SLDTEXTSTYLE6
 70
     0
 40
0.0
 41
0.3704081633
 50
0.0
 71
     0
 42
0.2
  3
TXT
  4

  0
STYLE
  5
57A
330
3
100
AcDbSymbolTableRecord
100
AcDbTextStyleTableRecord
  2
SLDTEXTSTYLE7
 70
     0
 40
0.0
 41
0.96
 50
0.0
 71
     0
 42
0.2
  3
ISOCP
  4

  0
ENDTAB
  0
TABLE
  2
VIEW
  5
6
330
0
100
AcDbSymbolTable
 70
     0
  0
ENDTAB
  0
TABLE
  2
UCS
  5
7
330
0
100
AcDbSymbolTable
 70
     0
  0
ENDTAB
  0
TABLE
  2
APPID
  5
9
330
0
100
AcDbSymbolTable
 70
     1
  0
APPID
  5
12
330
9
100
AcDbSymbolTableRecord
100
AcDbRegAppTableRecord
  2
ACAD
 70
     0
  0
ENDTAB
  0
TABLE
  2
DIMSTYLE
  5
A
330
0
100
AcDbSymbolTable
 70
     4
100
AcDbDimStyleTable
  0
DIMSTYLE
105
27
330
A
100
AcDbSymbolTableRecord
100
AcDbDimStyleTableRecord
  2
ISO-25
 70
     0
 41
2.5
 42
0.625
 43
3.75
 44
1.25
 73
     0
 74
     0
 77
     1
 78
     8
140
2.5
141
2.5
143
0.0393700787
147
0.625
171
     3
172
     1
271
     2
272
     2
274
     3
278
    44
283
     0
284
     8
340
11
  0
DIMSTYLE
105
26A
102
{ACAD_REACTORS
330
269
102
}
330
A
100
AcDbSymbolTableRecord
100
AcDbDimStyleTableRecord
  2
SLDDIMSTYLE0
 70
     0
 41
3.302
 44
0.0
 45
0.000000001
 73
     0
 74
     0
 77
     1
 78
    12
140
3.5
141
0.0
147
0.875
172
     1
173
     1
271
     2
272
     2
276
     2
284
    12
340
138
  0
DIMSTYLE
105
276
102
{ACAD_REACTORS
330
275
330
280
330
28A
330
294
330
29E
330
2A8
330
2C9
330
2D5
330
469
330
473
330
47D
330
607
102
}
330
A
100
AcDbSymbolTableRecord
100
AcDbDimStyleTableRecord
  2
SLDDIMSTYLE1
 70
     0
 41
3.302
 44
0.0
 45
0.000000001
 73
     0
 74
     0
 77
     1
 78
    12
140
3.5
147
0.875
173
     1
271
     2
272
     2
276
     2
284
    12
340
138
  0
DIMSTYLE
105
2B3
102
{ACAD_REACTORS
330
2B2
330
2BD
330
45D
102
}
330
A
100
AcDbSymbolTableRecord
100
AcDbDimStyleTableRecord
  2
SLDDIMSTYLE2
 70
     0
 41
3.302
 44
0.0
 45
0.000000001
 73
     0
 74
     0
 77
     1
 78
    12
140
3.5
147
0.875
173
     1
271
     2
272
     2
276
     2
284
    12
340
138
  0
ENDTAB
  0
TABLE
  2
BLOCK_RECORD
  5
1
330
0
100
AcDbSymbolTable
 70
    28
  0
BLOCK_RECORD
  5
1F
330
1
100
AcDbSymbolTableRecord
100
AcDbBlockTableRecord
  2
*Model_Space
340
22
  0
BLOCK_RECORD
  5
1B
330
1
100
AcDbSymbolTableRecord
100
AcDbBlockTableRecord
  2
*Paper_Space
340
1E
  0
BLOCK_RECORD
  5
23
330
1
100
AcDbSymbolTableRecord
100
AcDbBlockTableRecord
  2
*Paper_Space0
340
26
  0
BLOCK_RECORD
  5
127
330
1
100
AcDbSymbolTableRecord
100
AcDbBlockTableRecord
  2
SW_NOTE_0
340
0
102
{BLKREFS
331
12E
102
}
  0
BLOCK_RECORD
  5
12F
330
1
100
AcDbSymbolTableRecord
100
AcDbBlockTableRecord
  2
SW_NOTE_1
340
0
102
{BLKREFS
331
136
102
}
  0
BLOCK_RECORD
  5
15E
330
1
100
AcDbSymbolTableRecord
100
AcDbBlockTableRecord
  2
SW_NOTE_2
340
0
102
{BLKREFS
331
163
102
}
  0
BLOCK_RECORD
  5
173
330
1
100
AcDbSymbolTableRecord
100
AcDbBlockTableRecord
  2
SW_NOTE_3
340
0
102
{BLKREFS
331
178
102
}
  0
BLOCK_RECORD
  5
17A
330
1
100
AcDbSymbolTableRecord
100
AcDbBlockTableRecord
  2
SW_NOTE_4
340
0
102
{BLKREFS
331
17F
102
}
  0
BLOCK_RECORD
  5
189
330
1
100
AcDbSymbolTableRecord
100
AcDbBlockTableRecord
  2
SW_NOTE_5
340
0
102
{BLKREFS
331
18E
102
}
  0
BLOCK_RECORD
  5
1B5
330
1
100
AcDbSymbolTableRecord
100
AcDbBlockTableRecord
  2
SW_NOTE_6
340
0
102
{BLKREFS
331
1BA
102
}
  0
BLOCK_RECORD
  5
26B
330
1
100
AcDbSymbolTableRecord
100
AcDbBlockTableRecord
  2
*D8
340
0
  0
BLOCK_RECORD
  5
277
330
1
100
AcDbSymbolTableRecord
100
AcDbBlockTableRecord
  2
*D9
340
0
  0
BLOCK_RECORD
  5
281
330
1
100
AcDbSymbolTableRecord
100
AcDbBlockTableRecord
  2
*D10
340
0
  0
BLOCK_RECORD
  5
28B
330
1
100
AcDbSymbolTableRecord
100
AcDbBlockTableRecord
  2
*D11
340
0
  0
BLOCK_RECORD
  5
295
330
1
100
AcDbSymbolTableRecord
100
AcDbBlockTableRecord
  2
*D12
340
0
  0
BLOCK_RECORD
  5
29F
330
1
100
AcDbSymbolTableRecord
100
AcDbBlockTableRecord
  2
*D13
340
0
  0
BLOCK_RECORD
  5
2A9
330
1
100
AcDbSymbolTableRecord
100
AcDbBlockTableRecord
  2
*D14
340
0
  0
BLOCK_RECORD
  5
2B4
330
1
100
AcDbSymbolTableRecord
100
AcDbBlockTableRecord
  2
*D15
340
0
  0
BLOCK_RECORD
  5
2BE
330
1
100
AcDbSymbolTableRecord
100
AcDbBlockTableRecord
  2
*D16
340
0
  0
BLOCK_RECORD
  5
2CA
330
1
100
AcDbSymbolTableRecord
100
AcDbBlockTableRecord
  2
*D17
340
0
  0
BLOCK_RECORD
  5
2D6
330
1
100
AcDbSymbolTableRecord
100
AcDbBlockTableRecord
  2
*D18
340
0
  0
BLOCK_RECORD
  5
2DD
330
1
100
AcDbSymbolTableRecord
100
AcDbBlockTableRecord
  2
SW_CENTERMARKSYMBOL_0
340
0
102
{BLKREFS
331
2E8
102
}
  0
BLOCK_RECORD
  5
2E9
330
1
100
AcDbSymbolTableRecord
100
AcDbBlockTableRecord
  2
SW_CENTERMARKSYMBOL_1
340
0
102
{BLKREFS
331
2F4
102
}
  0
BLOCK_RECORD
  5
2F5
330
1
100
AcDbSymbolTableRecord
100
AcDbBlockTableRecord
  2
SW_CENTERMARKSYMBOL_2
340
0
102
{BLKREFS
331
300
102
}
  0
BLOCK_RECORD
  5
301
330
1
100
AcDbSymbolTableRecord
100
AcDbBlockTableRecord
  2
SW_CENTERMARKSYMBOL_3
340
0
102
{BLKREFS
331
30C
102
}
  0
BLOCK_RECORD
  5
45E
330
1
100
AcDbSymbolTableRecord
100
AcDbBlockTableRecord
  2
*D23
340
0
  0
BLOCK_RECORD
  5
46A
330
1
100
AcDbSymbolTableRecord
100
AcDbBlockTableRecord
  2
*D24
340
0
  0
BLOCK_RECORD
  5
474
330
1
100
AcDbSymbolTableRecord
100
AcDbBlockTableRecord
  2
*D25
340
0
  0
BLOCK_RECORD
  5
47E
330
1
100
AcDbSymbolTableRecord
100
AcDbBlockTableRecord
  2
*D26
340
0
  0
BLOCK_RECORD
  5
608
330
1
100
AcDbSymbolTableRecord
100
AcDbBlockTableRecord
  2
*D27
340
0
  0
ENDTAB
  0
ENDSEC
  0
SECTION
  2
BLOCKS
  0
BLOCK
  5
20
330
1F
100
AcDbEntity
  8
0
100
AcDbBlockBegin
  2
*Model_Space
 70
     0
 10
0.0
 20
0.0
 30
0.0
  3
*Model_Space
  1

  0
ENDBLK
  5
21
330
1F
100
AcDbEntity
  8
0
100
AcDbBlockEnd
  0
BLOCK
  5
1C
330
1B
100
AcDbEntity
 67
     1
  8
0
100
AcDbBlockBegin
  2
*Paper_Space
 70
     0
 10
0.0
 20
0.0
 30
0.0
  3
*Paper_Space
  1

  0
ENDBLK
  5
1D
330
1B
100
AcDbEntity
 67
     1
  8
0
100
AcDbBlockEnd
  0
BLOCK
  5
24
330
23
100
AcDbEntity
  8
0
100
AcDbBlockBegin
  2
*Paper_Space0
 70
     0
 10
0.0
 20
0.0
 30
0.0
  3
*Paper_Space0
  1

  0
ENDBLK
  5
25
330
23
100
AcDbEntity
  8
0
100
AcDbBlockEnd
  0
BLOCK
  5
128
330
127
100
AcDbEntity
  8
0
100
AcDbBlockBegin
  2
SW_NOTE_0
 70
     0
 10
0.0
 20
0.0
 30
0.0
  3
SW_NOTE_0
  1

  0
MTEXT
  5
12A
330
127
100
AcDbEntity
  8
FORMAT
 62
     0
100
AcDbMText
 10
-2.7285267159
 20
0.0
 30
0.0
 40
2.1166666667
 41
0.0
 71
     1
 72
     1
  1
Weitergabe sowie Vervielfältigung dieses Dokuments, Verwertung und Mitteilung
  7
SLDTEXTSTYLE1
 11
-3.491481338843133E-15
 21
1.0
 31
0.0
 73
     1
 44
1.0
  0
MTEXT
  5
12B
330
127
100
AcDbEntity
  8
FORMAT
 62
     0
100
AcDbMText
 10
0.0936954723
 20
0.0
 30
0.0
 40
2.1166666667
 41
0.0
 71
     1
 72
     1
  1
seines Inhalts sind verboten, soweit nicht ausdrücklich gestattet.
  7
SLDTEXTSTYLE1
 11
-3.491481338843133E-15
 21
1.0
 31
0.0
 73
     1
 44
1.0
  0
MTEXT
  5
12C
330
127
100
AcDbEntity
  8
FORMAT
 62
     0
100
AcDbMText
 10
2.9159176604
 20
0.0
 30
0.0
 40
2.1166666667
 41
0.0
 71
     1
 72
     1
  1
Zuwiderhandlungen verpflichten zu Schadenersatz. Alle Rechte für den Fall
  7
SLDTEXTSTYLE1
 11
-3.491481338843133E-15
 21
1.0
 31
0.0
 73
     1
 44
1.0
  0
MTEXT
  5
12D
330
127
100
AcDbEntity
  8
FORMAT
 62
     0
100
AcDbMText
 10
5.7381398485
 20
0.0
 30
0.0
 40
2.1166666667
 41
0.0
 71
     1
 72
     1
  1
der Patent-, Gebrauchsmuster- oder Geschmacksmustereintragung vorbehalten.
  7
SLDTEXTSTYLE1
 11
-3.491481338843133E-15
 21
1.0
 31
0.0
 73
     1
 44
1.0
  0
ENDBLK
  5
129
330
127
100
AcDbEntity
  8
0
100
AcDbBlockEnd
  0
BLOCK
  5
130
330
12F
100
AcDbEntity
  8
0
100
AcDbBlockBegin
  2
SW_NOTE_1
 70
     0
 10
0.0
 20
0.0
 30
0.0
  3
SW_NOTE_1
  1

  0
MTEXT
  5
132
330
12F
100
AcDbEntity
  8
FORMAT
 62
     0
100
AcDbMText
 10
-2.7285267159
 20
0.0
 30
0.0
 40
2.1166666667
 41
0.0
 71
     1
 72
     1
  1
The reproduction, distribution and utilization of this document as well as the
  7
SLDTEXTSTYLE1
 11
-3.491481338843133E-15
 21
1.0
 31
0.0
 73
     1
 44
1.0
  0
MTEXT
  5
133
330
12F
100
AcDbEntity
  8
FORMAT
 62
     0
100
AcDbMText
 10
0.0936954723
 20
0.0
 30
0.0
 40
2.1166666667
 41
0.0
 71
     1
 72
     1
  1
communication of its contents to others without explicid authorization is
  7
SLDTEXTSTYLE1
 11
-3.491481338843133E-15
 21
1.0
 31
0.0
 73
     1
 44
1.0
  0
MTEXT
  5
134
330
12F
100
AcDbEntity
  8
FORMAT
 62
     0
100
AcDbMText
 10
2.9159176604
 20
0.0
 30
0.0
 40
2.1166666667
 41
0.0
 71
     1
 72
     1
  1
prohibited. Offenders will be held liable for the payment of damages. All rights
  7
SLDTEXTSTYLE1
 11
-3.491481338843133E-15
 21
1.0
 31
0.0
 73
     1
 44
1.0
  0
MTEXT
  5
135
330
12F
100
AcDbEntity
  8
FORMAT
 62
     0
100
AcDbMText
 10
5.7381398485
 20
0.0
 30
0.0
 40
2.1166666667
 41
0.0
 71
     1
 72
     1
  1
reserved in the event of the grant of a patent, utility model or design.
  7
SLDTEXTSTYLE1
 11
-3.491481338843133E-15
 21
1.0
 31
0.0
 73
     1
 44
1.0
  0
ENDBLK
  5
131
330
12F
100
AcDbEntity
  8
0
100
AcDbBlockEnd
  0
BLOCK
  5
15F
330
15E
100
AcDbEntity
  8
0
100
AcDbBlockBegin
  2
SW_NOTE_2
 70
     0
 10
0.0
 20
0.0
 30
0.0
  3
SW_NOTE_2
  1

  0
MTEXT
  5
161
330
15E
100
AcDbEntity
  8
SCHRIFTFELD
 62
     0
100
AcDbMText
 10
0.0
 20
1.9851643192
 30
0.0
 40
1.54
 41
0.0
 71
     1
 72
     1
  1
Grenzabmaße für Längenmaße in mm für Nennbereich in mm
  7
SLDTEXTSTYLE1
 73
     1
 44
1.0
  0
MTEXT
  5
162
330
15E
100
AcDbEntity
  8
SCHRIFTFELD
 62
     0
100
AcDbMText
 10
5.7589635253
 20
-0.5548356966
 30
0.0
 40
1.54
 41
0.0
 71
     1
 72
     1
  1
Limiting for length in mm for nominal range in mm
  7
SLDTEXTSTYLE1
 73
     1
 44
1.0
  0
ENDBLK
  5
160
330
15E
100
AcDbEntity
  8
0
100
AcDbBlockEnd
  0
BLOCK
  5
174
330
173
100
AcDbEntity
  8
0
100
AcDbBlockBegin
  2
SW_NOTE_3
 70
     0
 10
0.0
 20
0.0
 30
0.0
  3
SW_NOTE_3
  1

  0
MTEXT
  5
176
330
173
100
AcDbEntity
  8
SCHRIFTFELD
 62
     0
100
AcDbMText
 10
0.0
 20
2.0463950369
 30
0.0
 40
1.5875
 41
0.0
 71
     1
 72
     1
  1
Allgemeintoleranz
  7
SLDTEXTSTYLE1
 73
     1
 44
1.0
  0
MTEXT
  5
177
330
173
100
AcDbEntity
  8
SCHRIFTFELD
 62
     0
100
AcDbMText
 10
0.0
 20
-0.0702716042
 30
0.0
 40
1.5875
 41
0.0
 71
     1
 72
     1
  1
General tolerance
  7
SLDTEXTSTYLE1
 73
     1
 44
1.0
  0
ENDBLK
  5
175
330
173
100
AcDbEntity
  8
0
100
AcDbBlockEnd
  0
BLOCK
  5
17B
330
17A
100
AcDbEntity
  8
0
100
AcDbBlockBegin
  2
SW_NOTE_4
 70
     0
 10
0.0
 20
0.0
 30
0.0
  3
SW_NOTE_4
  1

  0
MTEXT
  5
17D
330
17A
100
AcDbEntity
  8
SCHRIFTFELD
 62
     0
100
AcDbMText
 10
0.0
 20
2.0463950369
 30
0.0
 40
1.5875
 41
0.0
 71
     1
 72
     1
  1
Blatt /
  7
SLDTEXTSTYLE1
 73
     1
 44
1.0
  0
MTEXT
  5
17E
330
17A
100
AcDbEntity
  8
SCHRIFTFELD
 62
     0
100
AcDbMText
 10
0.0
 20
-0.0702716042
 30
0.0
 40
1.5875
 41
0.0
 71
     1
 72
     1
  1
Sheet:
  7
SLDTEXTSTYLE1
 73
     1
 44
1.0
  0
ENDBLK
  5
17C
330
17A
100
AcDbEntity
  8
0
100
AcDbBlockEnd
  0
BLOCK
  5
18A
330
189
100
AcDbEntity
  8
0
100
AcDbBlockBegin
  2
SW_NOTE_5
 70
     0
 10
0.0
 20
0.0
 30
0.0
  3
SW_NOTE_5
  1

  0
MTEXT
  5
18C
330
189
100
AcDbEntity
  8
SCHRIFTFELD
 62
     0
100
AcDbMText
 10
0.0
 20
2.0463950369
 30
0.0
 40
1.5875
 41
0.0
 71
     1
 72
     1
  1
Lfd
  7
SLDTEXTSTYLE1
 73
     1
 44
1.0
  0
MTEXT
  5
18D
330
189
100
AcDbEntity
  8
SCHRIFTFELD
 62
     0
100
AcDbMText
 10
0.0
 20
-0.0702716042
 30
0.0
 40
1.5875
 41
0.0
 71
     1
 72
     1
  1
No.
  7
SLDTEXTSTYLE1
 73
     1
 44
1.0
  0
ENDBLK
  5
18B
330
189
100
AcDbEntity
  8
0
100
AcDbBlockEnd
  0
BLOCK
  5
1B6
330
1B5
100
AcDbEntity
  8
0
100
AcDbBlockBegin
  2
SW_NOTE_6
 70
     0
 10
0.0
 20
0.0
 30
0.0
  3
SW_NOTE_6
  1

  0
MTEXT
  5
1B8
330
1B5
100
AcDbEntity
  8
SCHRIFTFELD
 62
     0
100
AcDbMText
 10
0.0
 20
1.9851643192
 30
0.0
 40
1.54
 41
0.0
 71
     1
 72
     1
  1
Toleranzklasse
  7
SLDTEXTSTYLE1
 73
     1
 44
1.0
  0
MTEXT
  5
1B9
330
1B5
100
AcDbEntity
  8
SCHRIFTFELD
 62
     0
100
AcDbMText
 10
0.0
 20
-0.5548356966
 30
0.0
 40
1.54
 41
0.0
 71
     1
 72
     1
  1
Tolerance class
  7
SLDTEXTSTYLE1
 73
     1
 44
1.0
  0
ENDBLK
  5
1B7
330
1B5
100
AcDbEntity
  8
0
100
AcDbBlockEnd
  0
BLOCK
  5
26C
330
26B
100
AcDbEntity
  8
0
100
AcDbBlockBegin
  2
*D8
 70
     1
 10
0.0
 20
0.0
 30
0.0
  3
*D8
  1

  0
SOLID
  5
26E
330
26B
100
AcDbEntity
  8
0
  6
Continuous
 62
     7
370
     0
100
AcDbTrace
 10
68.5575137059
 20
201.4897154144
 30
0.0
 11
65.4438978226
 21
200.2786563195
 31
0.0
 12
65.9518978226
 22
199.3987745093
 32
0.0
 13
65.9518978226
 23
199.3987745093
 33
0.0
  0
SOLID
  5
26F
330
26B
100
AcDbEntity
  8
0
  6
Continuous
 62
     7
370
     0
100
AcDbTrace
 10
73.3206534267
 20
204.2397154144
 30
0.0
 11
76.43426931
 21
205.4507745093
 31
0.0
 12
75.92626931
 22
206.3306563195
 32
0.0
 13
75.92626931
 23
206.3306563195
 33
0.0
  0
LINE
  5
270
330
26B
100
AcDbEntity
  8
0
  6
Continuous
 62
     7
370
     0
100
AcDbLine
 10
73.3206534267
 20
204.2397154144
 30
0.0
 11
100.7524299435
 21
220.0774589707
 31
0.0
  0
LINE
  5
271
330
26B
100
AcDbEntity
  8
0
  6
Continuous
 62
     7
370
     0
100
AcDbLine
 10
68.5575137059
 20
201.4897154144
 30
0.0
 11
63.0582523919
 21
198.3147154144
 31
0.0
  0
LINE
  5
272
330
26B
100
AcDbEntity
  8
0
  6
Continuous
 62
     7
370
     0
100
AcDbLine
 10
73.3206534267
 20
204.2397154144
 30
0.0
 11
68.5575137059
 21
201.4897154144
 31
0.0
  0
MTEXT
  5
273
330
26B
100
AcDbEntity
  8
0
  6
Continuous
 62
     7
370
     0
100
AcDbMText
 10
86.9615312792
 20
217.3082780455
 30
0.0
 40
3.5
 41
0.0
 71
     1
 72
     1
  1
%%c
  7
SLDTEXTSTYLE2
 11
0.8660254037844379
 21
0.5000000000000012
 31
0.0
 73
     1
 44
1.0
  0
MTEXT
  5
274
330
26B
100
AcDbEntity
  8
0
  6
Continuous
 62
     7
370
     0
100
AcDbMText
 10
91.5325813347
 20
219.9473748239
 30
0.0
 40
3.5
 41
0.0
 71
     1
 72
     1
  1
5,5
  7
SLDTEXTSTYLE2
 11
0.8660254037844379
 21
0.5000000000000012
 31
0.0
 73
     1
 44
1.0
  0
ENDBLK
  5
26D
330
26B
100
AcDbEntity
  8
0
100
AcDbBlockEnd
  0
BLOCK
  5
278
330
277
100
AcDbEntity
  8
0
100
AcDbBlockBegin
  2
*D9
 70
     1
 10
0.0
 20
0.0
 30
0.0
  3
*D9
  1

  0
SOLID
  5
27A
330
277
100
AcDbEntity
  8
0
  6
Continuous
 62
     7
370
     0
100
AcDbTrace
 10
82.9390835663
 20
221.9720417434
 30
0.0
 11
79.6370835663
 21
222.4800417434
 31
0.0
 12
79.6370835663
 22
221.4640417434
 32
0.0
 13
79.6370835663
 23
221.4640417434
 33
0.0
  0
SOLID
  5
27B
330
277
100
AcDbEntity
  8
0
  6
Continuous
 62
     7
370
     0
100
AcDbTrace
 10
58.9390835663
 20
221.9720417434
 30
0.0
 11
62.2410835663
 21
221.4640417434
 31
0.0
 12
62.2410835663
 22
222.4800417434
 32
0.0
 13
62.2410835663
 23
222.4800417434
 33
0.0
  0
LINE
  5
27C
330
277
100
AcDbEntity
  8
0
  6
Continuous
 62
     7
370
     0
100
AcDbLine
 10
82.9390835663
 20
209.8647154144
 30
0.0
 11
82.9390835663
 21
222.9720417434
 31
0.0
  0
LINE
  5
27D
330
277
100
AcDbEntity
  8
0
  6
Continuous
 62
     7
370
     0
100
AcDbLine
 10
58.9390835663
 20
209.8647154144
 30
0.0
 11
58.9390835663
 21
222.9720417434
 31
0.0
  0
LINE
  5
27E
330
277
100
AcDbEntity
  8
0
  6
Continuous
 62
     7
370
     0
100
AcDbLine
 10
82.9390835663
 20
221.9720417434
 30
0.0
 11
58.9390835663
 21
221.9720417434
 31
0.0
  0
MTEXT
  5
27F
330
277
100
AcDbEntity
  8
0
  6
Continuous
 62
     7
370
     0
100
AcDbMText
 10
67.1875282506
 20
226.483778658
 30
0.0
 40
3.5
 41
0.0
 71
     1
 72
     1
  1
24
  7
SLDTEXTSTYLE2
 73
     1
 44
1.0
  0
ENDBLK
  5
279
330
277
100
AcDbEntity
  8
0
100
AcDbBlockEnd
  0
BLOCK
  5
282
330
281
100
AcDbEntity
  8
0
100
AcDbBlockBegin
  2
*D10
 70
     1
 10
0.0
 20
0.0
 30
0.0
  3
*D10
  1

  0
SOLID
  5
284
330
281
100
AcDbEntity
  8
0
  6
Continuous
 62
     7
370
     0
100
AcDbTrace
 10
35.3517531423
 20
209.8647154144
 30
0.0
 11
34.8437531423
 21
206.5627154144
 31
0.0
 12
35.8597531423
 22
206.5627154144
 32
0.0
 13
35.8597531423
 23
206.5627154144
 33
0.0
  0
SOLID
  5
285
330
281
100
AcDbEntity
  8
0
  6
Continuous
 62
     7
370
     0
100
AcDbTrace
 10
35.3517531423
 20
99.8647154144
 30
0.0
 11
35.8597531423
 21
103.1667154144
 31
0.0
 12
34.8437531423
 22
103.1667154144
 32
0.0
 13
34.8437531423
 23
103.1667154144
 33
0.0
  0
LINE
  5
286
330
281
100
AcDbEntity
  8
0
  6
Continuous
 62
     7
370
     0
100
AcDbLine
 10
58.9390835663
 20
209.8647154144
 30
0.0
 11
34.3517531423
 21
209.8647154144
 31
0.0
  0
LINE
  5
287
330
281
100
AcDbEntity
  8
0
  6
Continuous
 62
     7
370
     0
100
AcDbLine
 10
58.9390835663
 20
99.8647154144
 30
0.0
 11
34.3517531423
 21
99.8647154144
 31
0.0
  0
LINE
  5
288
330
281
100
AcDbEntity
  8
0
  6
Continuous
 62
     7
370
     0
100
AcDbLine
 10
35.3517531423
 20
209.8647154144
 30
0.0
 11
35.3517531423
 21
99.8647154144
 31
0.0
  0
MTEXT
  5
289
330
281
100
AcDbEntity
  8
0
  6
Continuous
 62
     7
370
     0
100
AcDbMText
 10
30.8400162277
 20
149.8194851331
 30
0.0
 40
3.5
 41
0.0
 71
     1
 72
     1
  1
110
  7
SLDTEXTSTYLE2
 11
-3.491481338843133E-15
 21
1.0
 31
0.0
 73
     1
 44
1.0
  0
ENDBLK
  5
283
330
281
100
AcDbEntity
  8
0
100
AcDbBlockEnd
  0
BLOCK
  5
28C
330
28B
100
AcDbEntity
  8
0
100
AcDbBlockBegin
  2
*D11
 70
     1
 10
0.0
 20
0.0
 30
0.0
  3
*D11
  1

  0
SOLID
  5
28E
330
28B
100
AcDbEntity
  8
0
  6
Continuous
 62
     7
370
     0
100
AcDbTrace
 10
110.9390835663
 20
106.8647154144
 30
0.0
 11
111.4470835663
 21
110.1667154144
 31
0.0
 12
110.4310835663
 22
110.1667154144
 32
0.0
 13
110.4310835663
 23
110.1667154144
 33
0.0
  0
SOLID
  5
28F
330
28B
100
AcDbEntity
  8
0
  6
Continuous
 62
     7
370
     0
100
AcDbTrace
 10
110.9390835663
 20
202.8647154144
 30
0.0
 11
110.4310835663
 21
199.5627154144
 31
0.0
 12
111.4470835663
 22
199.5627154144
 32
0.0
 13
111.4470835663
 23
199.5627154144
 33
0.0
  0
LINE
  5
290
330
28B
100
AcDbEntity
  8
0
  6
Continuous
 62
     7
370
     0
100
AcDbLine
 10
78.6390835663
 20
106.8647154144
 30
0.0
 11
111.9390835663
 21
106.8647154144
 31
0.0
  0
LINE
  5
291
330
28B
100
AcDbEntity
  8
0
  6
Continuous
 62
     7
370
     0
100
AcDbLine
 10
78.6390835663
 20
202.8647154144
 30
0.0
 11
111.9390835663
 21
202.8647154144
 31
0.0
  0
LINE
  5
292
330
28B
100
AcDbEntity
  8
0
  6
Continuous
 62
     7
370
     0
100
AcDbLine
 10
110.9390835663
 20
106.8647154144
 30
0.0
 11
110.9390835663
 21
202.8647154144
 31
0.0
  0
MTEXT
  5
293
330
28B
100
AcDbEntity
  8
0
  6
Continuous
 62
     7
370
     0
100
AcDbMText
 10
106.4273466518
 20
151.1131600986
 30
0.0
 40
3.5
 41
0.0
 71
     1
 72
     1
  1
96
  7
SLDTEXTSTYLE2
 11
-1.608122649676637E-16
 21
1.0
 31
0.0
 73
     1
 44
1.0
  0
ENDBLK
  5
28D
330
28B
100
AcDbEntity
  8
0
100
AcDbBlockEnd
  0
BLOCK
  5
296
330
295
100
AcDbEntity
  8
0
100
AcDbBlockBegin
  2
*D12
 70
     1
 10
0.0
 20
0.0
 30
0.0
  3
*D12
  1

  0
SOLID
  5
298
330
295
100
AcDbEntity
  8
0
  6
Continuous
 62
     7
370
     0
100
AcDbTrace
 10
103.5039141621
 20
176.8647154144
 30
0.0
 11
102.9959141621
 21
173.5627154144
 31
0.0
 12
104.0119141621
 22
173.5627154144
 32
0.0
 13
104.0119141621
 23
173.5627154144
 33
0.0
  0
SOLID
  5
299
330
295
100
AcDbEntity
  8
0
  6
Continuous
 62
     7
370
     0
100
AcDbTrace
 10
103.5039141621
 20
132.8647154144
 30
0.0
 11
104.0119141621
 21
136.1667154144
 31
0.0
 12
102.9959141621
 22
136.1667154144
 32
0.0
 13
102.9959141621
 23
136.1667154144
 33
0.0
  0
LINE
  5
29A
330
295
100
AcDbEntity
  8
0
  6
Continuous
 62
     7
370
     0
100
AcDbLine
 10
70.9390835663
 20
176.8647154144
 30
0.0
 11
104.5039141621
 21
176.8647154144
 31
0.0
  0
LINE
  5
29B
330
295
100
AcDbEntity
  8
0
  6
Continuous
 62
     7
370
     0
100
AcDbLine
 10
70.9390835663
 20
132.8647154144
 30
0.0
 11
104.5039141621
 21
132.8647154144
 31
0.0
  0
LINE
  5
29C
330
295
100
AcDbEntity
  8
0
  6
Continuous
 62
     7
370
     0
100
AcDbLine
 10
103.5039141621
 20
176.8647154144
 30
0.0
 11
103.5039141621
 21
132.8647154144
 31
0.0
  0
MTEXT
  5
29D
330
295
100
AcDbEntity
  8
0
  6
Continuous
 62
     7
370
     0
100
AcDbMText
 10
98.9921772475
 20
151.1131600986
 30
0.0
 40
3.5
 41
0.0
 71
     1
 72
     1
  1
44
  7
SLDTEXTSTYLE2
 11
-3.491481338843133E-15
 21
1.0
 31
0.0
 73
     1
 44
1.0
  0
ENDBLK
  5
297
330
295
100
AcDbEntity
  8
0
100
AcDbBlockEnd
  0
BLOCK
  5
2A0
330
29F
100
AcDbEntity
  8
0
100
AcDbBlockBegin
  2
*D13
 70
     1
 10
0.0
 20
0.0
 30
0.0
  3
*D13
  1

  0
SOLID
  5
2A2
330
29F
100
AcDbEntity
  8
0
  6
Continuous
 62
     7
370
     0
100
AcDbTrace
 10
42.9390835663
 20
168.0647154144
 30
0.0
 11
42.4310835663
 21
164.7627154144
 31
0.0
 12
43.4470835663
 22
164.7627154144
 32
0.0
 13
43.4470835663
 23
164.7627154144
 33
0.0
  0
SOLID
  5
2A3
330
29F
100
AcDbEntity
  8
0
  6
Continuous
 62
     7
370
     0
100
AcDbTrace
 10
42.9390835663
 20
141.6647154144
 30
0.0
 11
43.4470835663
 21
144.9667154144
 31
0.0
 12
42.4310835663
 22
144.9667154144
 32
0.0
 13
42.4310835663
 23
144.9667154144
 33
0.0
  0
LINE
  5
2A4
330
29F
100
AcDbEntity
  8
0
  6
Continuous
 62
     7
370
     0
100
AcDbLine
 10
63.6390835663
 20
168.0647154144
 30
0.0
 11
41.9390835663
 21
168.0647154144
 31
0.0
  0
LINE
  5
2A5
330
29F
100
AcDbEntity
  8
0
  6
Continuous
 62
     7
370
     0
100
AcDbLine
 10
63.6390835663
 20
141.6647154144
 30
0.0
 11
41.9390835663
 21
141.6647154144
 31
0.0
  0
LINE
  5
2A6
330
29F
100
AcDbEntity
  8
0
  6
Continuous
 62
     7
370
     0
100
AcDbLine
 10
42.9390835663
 20
168.0647154144
 30
0.0
 11
42.9390835663
 21
141.6647154144
 31
0.0
  0
MTEXT
  5
2A7
330
29F
100
AcDbEntity
  8
0
  6
Continuous
 62
     7
370
     0
100
AcDbMText
 10
38.4273466518
 20
151.3519612818
 30
0.0
 40
3.5
 41
0.0
 71
     1
 72
     1
  1
26,4
  7
SLDTEXTSTYLE2
 11
-3.491481338843133E-15
 21
1.0
 31
0.0
 73
     1
 44
1.0
  0
ENDBLK
  5
2A1
330
29F
100
AcDbEntity
  8
0
100
AcDbBlockEnd
  0
BLOCK
  5
2AA
330
2A9
100
AcDbEntity
  8
0
100
AcDbBlockBegin
  2
*D14
 70
     1
 10
0.0
 20
0.0
 30
0.0
  3
*D14
  1

  0
SOLID
  5
2AC
330
2A9
100
AcDbEntity
  8
0
  6
Continuous
 62
     7
370
     0
100
AcDbTrace
 10
96.3969241044
 20
138.5647154144
 30
0.0
 11
96.9049241044
 21
141.8667154144
 31
0.0
 12
95.8889241044
 22
141.8667154144
 32
0.0
 13
95.8889241044
 23
141.8667154144
 33
0.0
  0
SOLID
  5
2AD
330
2A9
100
AcDbEntity
  8
0
  6
Continuous
 62
     7
370
     0
100
AcDbTrace
 10
96.3969241044
 20
171.1647154144
 30
0.0
 11
95.8889241044
 21
167.8627154144
 31
0.0
 12
96.9049241044
 22
167.8627154144
 32
0.0
 13
96.9049241044
 23
167.8627154144
 33
0.0
  0
LINE
  5
2AE
330
2A9
100
AcDbEntity
  8
0
  6
Continuous
 62
     7
370
     0
100
AcDbLine
 10
78.2390835663
 20
138.5647154144
 30
0.0
 11
97.3969241044
 21
138.5647154144
 31
0.0
  0
LINE
  5
2AF
330
2A9
100
AcDbEntity
  8
0
  6
Continuous
 62
     7
370
     0
100
AcDbLine
 10
78.2390835663
 20
171.1647154144
 30
0.0
 11
97.3969241044
 21
171.1647154144
 31
0.0
  0
LINE
  5
2B0
330
2A9
100
AcDbEntity
  8
0
  6
Continuous
 62
     7
370
     0
100
AcDbLine
 10
96.3969241044
 20
138.5647154144
 30
0.0
 11
96.3969241044
 21
171.1647154144
 31
0.0
  0
MTEXT
  5
2B1
330
2A9
100
AcDbEntity
  8
0
  6
Continuous
 62
     7
370
     0
100
AcDbMText
 10
91.8851871898
 20
149.1736825904
 30
0.0
 40
3.5
 41
0.0
 71
     1
 72
     1
  1
32,6
  7
SLDTEXTSTYLE2
 11
3.391901413832837E-15
 21
1.0
 31
0.0
 73
     1
 44
1.0
  0
ENDBLK
  5
2AB
330
2A9
100
AcDbEntity
  8
0
100
AcDbBlockEnd
  0
BLOCK
  5
2B5
330
2B4
100
AcDbEntity
  8
0
100
AcDbBlockBegin
  2
*D15
 70
     1
 10
0.0
 20
0.0
 30
0.0
  3
*D15
  1

  0
SOLID
  5
2B7
330
2B4
100
AcDbEntity
  8
0
  6
Continuous
 62
     7
370
     0
100
AcDbTrace
 10
82.9390835663
 20
159.8495247246
 30
0.0
 11
86.2410835663
 21
159.3415247246
 31
0.0
 12
86.2410835663
 22
160.3575247246
 32
0.0
 13
86.2410835663
 23
160.3575247246
 33
0.0
  0
SOLID
  5
2B8
330
2B4
100
AcDbEntity
  8
0
  6
Continuous
 62
     7
370
     0
100
AcDbTrace
 10
78.2390835663
 20
159.8495247246
 30
0.0
 11
74.9370835663
 21
160.3575247246
 31
0.0
 12
74.9370835663
 22
159.3415247246
 32
0.0
 13
74.9370835663
 23
159.3415247246
 33
0.0
  0
LINE
  5
2B9
330
2B4
100
AcDbEntity
  8
0
  6
Continuous
 62
     7
370
     0
100
AcDbLine
 10
82.9390835663
 20
159.8495247246
 30
0.0
 11
92.3901675464
 21
159.8495247246
 31
0.0
  0
LINE
  5
2BA
330
2B4
100
AcDbEntity
  8
0
  6
Continuous
 62
     7
370
     0
100
AcDbLine
 10
82.9390835663
 20
159.8495247246
 30
0.0
 11
78.2390835663
 21
159.8495247246
 31
0.0
  0
LINE
  5
2BB
330
2B4
100
AcDbEntity
  8
0
  6
Continuous
 62
     7
370
     0
100
AcDbLine
 10
78.2390835663
 20
159.8495247246
 30
0.0
 11
71.8890835663
 21
159.8495247246
 31
0.0
  0
MTEXT
  5
2BC
330
2B4
100
AcDbEntity
  8
0
  6
Continuous
 62
     7
370
     0
100
AcDbMText
 10
84.3405023587
 20
164.3612616391
 30
0.0
 40
3.5
 41
0.0
 71
     1
 72
     1
  1
4,7
  7
SLDTEXTSTYLE2
 73
     1
 44
1.0
  0
ENDBLK
  5
2B6
330
2B4
100
AcDbEntity
  8
0
100
AcDbBlockEnd
  0
BLOCK
  5
2BF
330
2BE
100
AcDbEntity
  8
0
100
AcDbBlockBegin
  2
*D16
 70
     1
 10
0.0
 20
0.0
 30
0.0
  3
*D16
  1

  0
SOLID
  5
2C1
330
2BE
100
AcDbEntity
  8
0
  6
Continuous
 62
     7
370
     0
100
AcDbTrace
 10
75.0390835663
 20
89.8647154144
 30
0.0
 11
71.7370835663
 21
90.3727154144
 31
0.0
 12
71.7370835663
 22
89.3567154144
 32
0.0
 13
71.7370835663
 23
89.3567154144
 33
0.0
  0
SOLID
  5
2C2
330
2BE
100
AcDbEntity
  8
0
  6
Continuous
 62
     7
370
     0
100
AcDbTrace
 10
78.2390835663
 20
89.8647154144
 30
0.0
 11
81.5410835663
 21
89.3567154144
 31
0.0
 12
81.5410835663
 22
90.3727154144
 32
0.0
 13
81.5410835663
 23
90.3727154144
 33
0.0
  0
LINE
  5
2C3
330
2BE
100
AcDbEntity
  8
0
  6
Continuous
 62
     7
370
     0
100
AcDbLine
 10
75.0390835663
 20
138.5647154144
 30
0.0
 11
75.0390835663
 21
88.8647154144
 31
0.0
  0
LINE
  5
2C4
330
2BE
100
AcDbEntity
  8
0
  6
Continuous
 62
     7
370
     0
100
AcDbLine
 10
78.2390835663
 20
138.5647154144
 30
0.0
 11
78.2390835663
 21
88.8647154144
 31
0.0
  0
LINE
  5
2C5
330
2BE
100
AcDbEntity
  8
0
  6
Continuous
 62
     7
370
     0
100
AcDbLine
 10
75.0390835663
 20
89.8647154144
 30
0.0
 11
63.4468989888
 21
89.8647154144
 31
0.0
  0
LINE
  5
2C6
330
2BE
100
AcDbEntity
  8
0
  6
Continuous
 62
     7
370
     0
100
AcDbLine
 10
75.0390835663
 20
89.8647154144
 30
0.0
 11
78.2390835663
 21
89.8647154144
 31
0.0
  0
LINE
  5
2C7
330
2BE
100
AcDbEntity
  8
0
  6
Continuous
 62
     7
370
     0
100
AcDbLine
 10
78.2390835663
 20
89.8647154144
 30
0.0
 11
84.5890835663
 21
89.8647154144
 31
0.0
  0
MTEXT
  5
2C8
330
2BE
100
AcDbEntity
  8
0
  6
Continuous
 62
     7
370
     0
100
AcDbMText
 10
65.0343989888
 20
94.376452329
 30
0.0
 40
3.5
 41
0.0
 71
     1
 72
     1
  1
3,2
  7
SLDTEXTSTYLE2
 73
     1
 44
1.0
  0
ENDBLK
  5
2C0
330
2BE
100
AcDbEntity
  8
0
100
AcDbBlockEnd
  0
BLOCK
  5
2CB
330
2CA
100
AcDbEntity
  8
0
100
AcDbBlockBegin
  2
*D17
 70
     1
 10
0.0
 20
0.0
 30
0.0
  3
*D17
  1

  0
SOLID
  5
2CD
330
2CA
100
AcDbEntity
  8
0
  6
Continuous
 62
     7
370
     0
100
AcDbTrace
 10
78.2390835663
 20
82.1045034016
 30
0.0
 11
74.9370835663
 21
82.6125034016
 31
0.0
 12
74.9370835663
 22
81.5965034016
 32
0.0
 13
74.9370835663
 23
81.5965034016
 33
0.0
  0
SOLID
  5
2CE
330
2CA
100
AcDbEntity
  8
0
  6
Continuous
 62
     7
370
     0
100
AcDbTrace
 10
63.6390835663
 20
82.1045034016
 30
0.0
 11
66.9410835663
 21
81.5965034016
 31
0.0
 12
66.9410835663
 22
82.6125034016
 32
0.0
 13
66.9410835663
 23
82.6125034016
 33
0.0
  0
LINE
  5
2CF
330
2CA
100
AcDbEntity
  8
0
  6
Continuous
 62
     7
370
     0
100
AcDbLine
 10
78.2390835663
 20
138.5647154144
 30
0.0
 11
78.2390835663
 21
134.3647154144
 31
0.0
  0
LINE
  5
2D0
330
2CA
100
AcDbEntity
  8
0
  6
Continuous
 62
     7
370
     0
100
AcDbLine
 10
78.2390835663
 20
131.3647154144
 30
0.0
 11
78.2390835663
 21
81.1045034016
 31
0.0
  0
LINE
  5
2D1
330
2CA
100
AcDbEntity
  8
0
  6
Continuous
 62
     7
370
     0
100
AcDbLine
 10
63.6390835663
 20
141.6647154144
 30
0.0
 11
63.6390835663
 21
91.3647154144
 31
0.0
  0
LINE
  5
2D2
330
2CA
100
AcDbEntity
  8
0
  6
Continuous
 62
     7
370
     0
100
AcDbLine
 10
63.6390835663
 20
88.3647154144
 30
0.0
 11
63.6390835663
 21
81.1045034016
 31
0.0
  0
LINE
  5
2D3
330
2CA
100
AcDbEntity
  8
0
  6
Continuous
 62
     7
370
     0
100
AcDbLine
 10
78.2390835663
 20
82.1045034016
 30
0.0
 11
63.6390835663
 21
82.1045034016
 31
0.0
  0
MTEXT
  5
2D4
330
2CA
100
AcDbEntity
  8
0
  6
Continuous
 62
     7
370
     0
100
AcDbMText
 10
65.2480507423
 20
86.6162403161
 30
0.0
 40
3.5
 41
0.0
 71
     1
 72
     1
  1
14,6
  7
SLDTEXTSTYLE2
 73
     1
 44
1.0
  0
ENDBLK
  5
2CC
330
2CA
100
AcDbEntity
  8
0
100
AcDbBlockEnd
  0
BLOCK
  5
2D7
330
2D6
100
AcDbEntity
  8
0
100
AcDbBlockBegin
  2
*D18
 70
     1
 10
0.0
 20
0.0
 30
0.0
  3
*D18
  1

  0
SOLID
  5
2D9
330
2D6
100
AcDbEntity
  8
0
  6
Continuous
 62
     7
370
     0
100
AcDbTrace
 10
78.2390835663
 20
159.8507452147
 30
0.0
 11
74.9370835663
 21
160.3587452147
 31
0.0
 12
74.9370835663
 22
159.3427452147
 32
0.0
 13
74.9370835663
 23
159.3427452147
 33
0.0
  0
SOLID
  5
2DA
330
2D6
100
AcDbEntity
  8
0
  6
Continuous
 62
     7
370
     0
100
AcDbTrace
 10
63.6390835663
 20
159.8507452147
 30
0.0
 11
66.9410835663
 21
159.3427452147
 31
0.0
 12
66.9410835663
 22
160.3587452147
 32
0.0
 13
66.9410835663
 23
160.3587452147
 33
0.0
  0
LINE
  5
2DB
330
2D6
100
AcDbEntity
  8
0
  6
Continuous
 62
     7
370
     0
100
AcDbLine
 10
78.2390835663
 20
159.8507452147
 30
0.0
 11
63.6390835663
 21
159.8507452147
 31
0.0
  0
MTEXT
  5
2DC
330
2D6
100
AcDbEntity
  8
0
  6
Continuous
 62
     7
370
     0
100
AcDbMText
 10
64.8958420978
 20
164.3624821293
 30
0.0
 40
3.5
 41
0.0
 71
     1
 72
     1
  1
14,6
  7
SLDTEXTSTYLE2
 73
     1
 44
1.0
  0
ENDBLK
  5
2D8
330
2D6
100
AcDbEntity
  8
0
100
AcDbBlockEnd
  0
BLOCK
  5
2DE
330
2DD
100
AcDbEntity
  8
0
100
AcDbBlockBegin
  2
SW_CENTERMARKSYMBOL_0
 70
     0
 10
0.0
 20
0.0
 30
0.0
  3
SW_CENTERMARKSYMBOL_0
  1

  0
LINE
  5
2E0
330
2DD
100
AcDbEntity
  8
0
  6
Continuous
 62
     0
370
     0
100
AcDbLine
 10
0.0
 20
0.0
 30
0.0
 11
0.0
 21
2.5
 31
0.0
  0
LINE
  5
2E1
330
2DD
100
AcDbEntity
  8
0
  6
Continuous
 62
     0
370
     0
100
AcDbLine
 10
0.0
 20
0.0
 30
0.0
 11
-2.5
 21
0.0
 31
0.0
  0
LINE
  5
2E2
330
2DD
100
AcDbEntity
  8
0
  6
Continuous
 62
     0
370
     0
100
AcDbLine
 10
0.0
 20
0.0
 30
0.0
 11
0.0
 21
-2.5
 31
0.0
  0
LINE
  5
2E3
330
2DD
100
AcDbEntity
  8
0
  6
Continuous
 62
     0
370
     0
100
AcDbLine
 10
0.0
 20
0.0
 30
0.0
 11
2.5
 21
0.0
 31
0.0
  0
LINE
  5
2E4
330
2DD
100
AcDbEntity
  8
0
  6
Continuous
 62
     0
370
     0
100
AcDbLine
 10
0.0
 20
5.0
 30
0.0
 11
0.0
 21
7.7
 31
0.0
  0
LINE
  5
2E5
330
2DD
100
AcDbEntity
  8
0
  6
Continuous
 62
     0
370
     0
100
AcDbLine
 10
-5.0
 20
0.0
 30
0.0
 11
-7.7
 21
0.0
 31
0.0
  0
LINE
  5
2E6
330
2DD
100
AcDbEntity
  8
0
  6
Continuous
 62
     0
370
     0
100
AcDbLine
 10
0.0
 20
-5.0
 30
0.0
 11
0.0
 21
-7.7
 31
0.0
  0
LINE
  5
2E7
330
2DD
100
AcDbEntity
  8
0
  6
Continuous
 62
     0
370
     0
100
AcDbLine
 10
5.0
 20
0.0
 30
0.0
 11
7.7
 21
0.0
 31
0.0
  0
ENDBLK
  5
2DF
330
2DD
100
AcDbEntity
  8
0
100
AcDbBlockEnd
  0
BLOCK
  5
2EA
330
2E9
100
AcDbEntity
  8
0
100
AcDbBlockBegin
  2
SW_CENTERMARKSYMBOL_1
 70
     0
 10
0.0
 20
0.0
 30
0.0
  3
SW_CENTERMARKSYMBOL_1
  1

  0
LINE
  5
2EC
330
2E9
100
AcDbEntity
  8
0
  6
Continuous
 62
     0
370
     0
100
AcDbLine
 10
0.0
 20
0.0
 30
0.0
 11
0.0
 21
2.5
 31
0.0
  0
LINE
  5
2ED
330
2E9
100
AcDbEntity
  8
0
  6
Continuous
 62
     0
370
     0
100
AcDbLine
 10
0.0
 20
0.0
 30
0.0
 11
-2.5
 21
0.0
 31
0.0
  0
LINE
  5
2EE
330
2E9
100
AcDbEntity
  8
0
  6
Continuous
 62
     0
370
     0
100
AcDbLine
 10
0.0
 20
0.0
 30
0.0
 11
0.0
 21
-2.5
 31
0.0
  0
LINE
  5
2EF
330
2E9
100
AcDbEntity
  8
0
  6
Continuous
 62
     0
370
     0
100
AcDbLine
 10
0.0
 20
0.0
 30
0.0
 11
2.5
 21
0.0
 31
0.0
  0
LINE
  5
2F0
330
2E9
100
AcDbEntity
  8
0
  6
Continuous
 62
     0
370
     0
100
AcDbLine
 10
0.0
 20
5.0
 30
0.0
 11
0.0
 21
6.8
 31
0.0
  0
LINE
  5
2F1
330
2E9
100
AcDbEntity
  8
0
  6
Continuous
 62
     0
370
     0
100
AcDbLine
 10
-5.0
 20
0.0
 30
0.0
 11
-6.8
 21
0.0
 31
0.0
  0
LINE
  5
2F2
330
2E9
100
AcDbEntity
  8
0
  6
Continuous
 62
     0
370
     0
100
AcDbLine
 10
0.0
 20
-5.0
 30
0.0
 11
0.0
 21
-6.8
 31
0.0
  0
LINE
  5
2F3
330
2E9
100
AcDbEntity
  8
0
  6
Continuous
 62
     0
370
     0
100
AcDbLine
 10
5.0
 20
0.0
 30
0.0
 11
6.8
 21
0.0
 31
0.0
  0
ENDBLK
  5
2EB
330
2E9
100
AcDbEntity
  8
0
100
AcDbBlockEnd
  0
BLOCK
  5
2F6
330
2F5
100
AcDbEntity
  8
0
100
AcDbBlockBegin
  2
SW_CENTERMARKSYMBOL_2
 70
     0
 10
0.0
 20
0.0
 30
0.0
  3
SW_CENTERMARKSYMBOL_2
  1

  0
LINE
  5
2F8
330
2F5
100
AcDbEntity
  8
0
  6
Continuous
 62
     0
370
     0
100
AcDbLine
 10
0.0
 20
0.0
 30
0.0
 11
0.0
 21
2.5
 31
0.0
  0
LINE
  5
2F9
330
2F5
100
AcDbEntity
  8
0
  6
Continuous
 62
     0
370
     0
100
AcDbLine
 10
0.0
 20
0.0
 30
0.0
 11
-2.5
 21
0.0
 31
0.0
  0
LINE
  5
2FA
330
2F5
100
AcDbEntity
  8
0
  6
Continuous
 62
     0
370
     0
100
AcDbLine
 10
0.0
 20
0.0
 30
0.0
 11
0.0
 21
-2.5
 31
0.0
  0
LINE
  5
2FB
330
2F5
100
AcDbEntity
  8
0
  6
Continuous
 62
     0
370
     0
100
AcDbLine
 10
0.0
 20
0.0
 30
0.0
 11
2.5
 21
0.0
 31
0.0
  0
LINE
  5
2FC
330
2F5
100
AcDbEntity
  8
0
  6
Continuous
 62
     0
370
     0
100
AcDbLine
 10
0.0
 20
5.0
 30
0.0
 11
0.0
 21
6.8
 31
0.0
  0
LINE
  5
2FD
330
2F5
100
AcDbEntity
  8
0
  6
Continuous
 62
     0
370
     0
100
AcDbLine
 10
-5.0
 20
0.0
 30
0.0
 11
-6.8
 21
0.0
 31
0.0
  0
LINE
  5
2FE
330
2F5
100
AcDbEntity
  8
0
  6
Continuous
 62
     0
370
     0
100
AcDbLine
 10
0.0
 20
-5.0
 30
0.0
 11
0.0
 21
-6.8
 31
0.0
  0
LINE
  5
2FF
330
2F5
100
AcDbEntity
  8
0
  6
Continuous
 62
     0
370
     0
100
AcDbLine
 10
5.0
 20
0.0
 30
0.0
 11
6.8
 21
0.0
 31
0.0
  0
ENDBLK
  5
2F7
330
2F5
100
AcDbEntity
  8
0
100
AcDbBlockEnd
  0
BLOCK
  5
302
330
301
100
AcDbEntity
  8
0
100
AcDbBlockBegin
  2
SW_CENTERMARKSYMBOL_3
 70
     0
 10
0.0
 20
0.0
 30
0.0
  3
SW_CENTERMARKSYMBOL_3
  1

  0
LINE
  5
304
330
301
100
AcDbEntity
  8
0
  6
Continuous
 62
     0
370
     0
100
AcDbLine
 10
0.0
 20
0.0
 30
0.0
 11
0.0
 21
2.5
 31
0.0
  0
LINE
  5
305
330
301
100
AcDbEntity
  8
0
  6
Continuous
 62
     0
370
     0
100
AcDbLine
 10
0.0
 20
0.0
 30
0.0
 11
-2.5
 21
0.0
 31
0.0
  0
LINE
  5
306
330
301
100
AcDbEntity
  8
0
  6
Continuous
 62
     0
370
     0
100
AcDbLine
 10
0.0
 20
0.0
 30
0.0
 11
0.0
 21
-2.5
 31
0.0
  0
LINE
  5
307
330
301
100
AcDbEntity
  8
0
  6
Continuous
 62
     0
370
     0
100
AcDbLine
 10
0.0
 20
0.0
 30
0.0
 11
2.5
 21
0.0
 31
0.0
  0
LINE
  5
308
330
301
100
AcDbEntity
  8
0
  6
Continuous
 62
     0
370
     0
100
AcDbLine
 10
0.0
 20
5.0
 30
0.0
 11
0.0
 21
7.7
 31
0.0
  0
LINE
  5
309
330
301
100
AcDbEntity
  8
0
  6
Continuous
 62
     0
370
     0
100
AcDbLine
 10
-5.0
 20
0.0
 30
0.0
 11
-7.7
 21
0.0
 31
0.0
  0
LINE
  5
30A
330
301
100
AcDbEntity
  8
0
  6
Continuous
 62
     0
370
     0
100
AcDbLine
 10
0.0
 20
-5.0
 30
0.0
 11
0.0
 21
-7.7
 31
0.0
  0
LINE
  5
30B
330
301
100
AcDbEntity
  8
0
  6
Continuous
 62
     0
370
     0
100
AcDbLine
 10
5.0
 20
0.0
 30
0.0
 11
7.7
 21
0.0
 31
0.0
  0
ENDBLK
  5
303
330
301
100
AcDbEntity
  8
0
100
AcDbBlockEnd
  0
BLOCK
  5
45F
330
45E
100
AcDbEntity
  8
0
100
AcDbBlockBegin
  2
*D23
 70
     1
 10
0.0
 20
0.0
 30
0.0
  3
*D23
  1

  0
SOLID
  5
461
330
45E
100
AcDbEntity
  8
0
  6
Continuous
 62
     7
370
     0
100
AcDbTrace
 10
175.2678280081
 20
89.8647154144
 30
0.0
 11
178.5698280081
 21
89.3567154144
 31
0.0
 12
178.5698280081
 22
90.3727154144
 32
0.0
 13
178.5698280081
 23
90.3727154144
 33
0.0
  0
SOLID
  5
462
330
45E
100
AcDbEntity
  8
0
  6
Continuous
 62
     7
370
     0
100
AcDbTrace
 10
172.2678280081
 20
89.8647154144
 30
0.0
 11
168.9658280081
 21
90.3727154144
 31
0.0
 12
168.9658280081
 22
89.3567154144
 32
0.0
 13
168.9658280081
 23
89.3567154144
 33
0.0
  0
LINE
  5
463
330
45E
100
AcDbEntity
  8
0
  6
Continuous
 62
     7
370
     0
100
AcDbLine
 10
175.2678280081
 20
99.8647154144
 30
0.0
 11
175.2678280081
 21
88.8647154144
 31
0.0
  0
LINE
  5
464
330
45E
100
AcDbEntity
  8
0
  6
Continuous
 62
     7
370
     0
100
AcDbLine
 10
172.2678280081
 20
99.8647154144
 30
0.0
 11
172.2678280081
 21
88.8647154144
 31
0.0
  0
LINE
  5
465
330
45E
100
AcDbEntity
  8
0
  6
Continuous
 62
     7
370
     0
100
AcDbLine
 10
175.2678280081
 20
89.8647154144
 30
0.0
 11
185.7811525359
 21
89.8647154144
 31
0.0
  0
LINE
  5
466
330
45E
100
AcDbEntity
  8
0
  6
Continuous
 62
     7
370
     0
100
AcDbLine
 10
175.2678280081
 20
89.8647154144
 30
0.0
 11
172.2678280081
 21
89.8647154144
 31
0.0
  0
LINE
  5
467
330
45E
100
AcDbEntity
  8
0
  6
Continuous
 62
     7
370
     0
100
AcDbLine
 10
172.2678280081
 20
89.8647154144
 30
0.0
 11
165.9178280081
 21
89.8647154144
 31
0.0
  0
MTEXT
  5
468
330
45E
100
AcDbEntity
  8
0
  6
Continuous
 62
     7
370
     0
100
AcDbMText
 10
181.6104423647
 20
94.376452329
 30
0.0
 40
3.5
 41
0.0
 71
     1
 72
     1
  1
3
  7
SLDTEXTSTYLE2
 73
     1
 44
1.0
  0
ENDBLK
  5
460
330
45E
100
AcDbEntity
  8
0
100
AcDbBlockEnd
  0
BLOCK
  5
46B
330
46A
100
AcDbEntity
  8
0
100
AcDbBlockBegin
  2
*D24
 70
     1
 10
0.0
 20
0.0
 30
0.0
  3
*D24
  1

  0
SOLID
  5
46D
330
46A
100
AcDbEntity
  8
0
  6
Continuous
 62
     7
370
     0
100
AcDbTrace
 10
172.2678280081
 20
89.8647154144
 30
0.0
 11
168.9658280081
 21
90.3727154144
 31
0.0
 12
168.9658280081
 22
89.3567154144
 32
0.0
 13
168.9658280081
 23
89.3567154144
 33
0.0
  0
SOLID
  5
46E
330
46A
100
AcDbEntity
  8
0
  6
Continuous
 62
     7
370
     0
100
AcDbTrace
 10
135.2678280081
 20
89.8647154144
 30
0.0
 11
138.5698280081
 21
89.3567154144
 31
0.0
 12
138.5698280081
 22
90.3727154144
 32
0.0
 13
138.5698280081
 23
90.3727154144
 33
0.0
  0
LINE
  5
46F
330
46A
100
AcDbEntity
  8
0
  6
Continuous
 62
     7
370
     0
100
AcDbLine
 10
172.2678280081
 20
99.8647154144
 30
0.0
 11
172.2678280081
 21
88.8647154144
 31
0.0
  0
LINE
  5
470
330
46A
100
AcDbEntity
  8
0
  6
Continuous
 62
     7
370
     0
100
AcDbLine
 10
135.2678280081
 20
126.8647154144
 30
0.0
 11
135.2678280081
 21
88.8647154144
 31
0.0
  0
LINE
  5
471
330
46A
100
AcDbEntity
  8
0
  6
Continuous
 62
     7
370
     0
100
AcDbLine
 10
172.2678280081
 20
89.8647154144
 30
0.0
 11
135.2678280081
 21
89.8647154144
 31
0.0
  0
MTEXT
  5
472
330
46A
100
AcDbEntity
  8
0
  6
Continuous
 62
     7
370
     0
100
AcDbMText
 10
151.5583346458
 20
94.376452329
 30
0.0
 40
3.5
 41
0.0
 71
     1
 72
     1
  1
37
  7
SLDTEXTSTYLE2
 73
     1
 44
1.0
  0
ENDBLK
  5
46C
330
46A
100
AcDbEntity
  8
0
100
AcDbBlockEnd
  0
BLOCK
  5
475
330
474
100
AcDbEntity
  8
0
100
AcDbBlockBegin
  2
*D25
 70
     1
 10
0.0
 20
0.0
 30
0.0
  3
*D25
  1

  0
SOLID
  5
477
330
474
100
AcDbEntity
  8
0
  6
Continuous
 62
     7
370
     0
100
AcDbTrace
 10
125.2640529969
 20
186.8647154144
 30
0.0
 11
124.7560529969
 21
183.5627154144
 31
0.0
 12
125.7720529969
 22
183.5627154144
 32
0.0
 13
125.7720529969
 23
183.5627154144
 33
0.0
  0
SOLID
  5
478
330
474
100
AcDbEntity
  8
0
  6
Continuous
 62
     7
370
     0
100
AcDbTrace
 10
125.2640529969
 20
122.8647154144
 30
0.0
 11
125.7720529969
 21
126.1667154144
 31
0.0
 12
124.7560529969
 22
126.1667154144
 32
0.0
 13
124.7560529969
 23
126.1667154144
 33
0.0
  0
LINE
  5
479
330
474
100
AcDbEntity
  8
0
  6
Continuous
 62
     7
370
     0
100
AcDbLine
 10
137.2678280081
 20
186.8647154144
 30
0.0
 11
124.2640529969
 21
186.8647154144
 31
0.0
  0
LINE
  5
47A
330
474
100
AcDbEntity
  8
0
  6
Continuous
 62
     7
370
     0
100
AcDbLine
 10
137.2678280081
 20
122.8647154144
 30
0.0
 11
124.2640529969
 21
122.8647154144
 31
0.0
  0
LINE
  5
47B
330
474
100
AcDbEntity
  8
0
  6
Continuous
 62
     7
370
     0
100
AcDbLine
 10
125.2640529969
 20
186.8647154144
 30
0.0
 11
125.2640529969
 21
122.8647154144
 31
0.0
  0
MTEXT
  5
47C
330
474
100
AcDbEntity
  8
0
  6
Continuous
 62
     7
370
     0
100
AcDbMText
 10
120.7523160824
 20
151.6695279271
 30
0.0
 40
3.5
 41
0.0
 71
     1
 72
     1
  1
64
  7
SLDTEXTSTYLE2
 11
-3.491481338843133E-15
 21
1.0
 31
0.0
 73
     1
 44
1.0
  0
ENDBLK
  5
476
330
474
100
AcDbEntity
  8
0
100
AcDbBlockEnd
  0
BLOCK
  5
47F
330
47E
100
AcDbEntity
  8
0
100
AcDbBlockBegin
  2
*D26
 70
     1
 10
0.0
 20
0.0
 30
0.0
  3
*D26
  1

  0
SOLID
  5
481
330
47E
100
AcDbEntity
  8
0
  6
Continuous
 62
     7
370
     0
100
AcDbTrace
 10
192.2678280081
 20
187.5185786898
 30
0.0
 11
188.9658280081
 21
188.0265786898
 31
0.0
 12
188.9658280081
 22
187.0105786898
 32
0.0
 13
188.9658280081
 23
187.0105786898
 33
0.0
  0
SOLID
  5
482
330
47E
100
AcDbEntity
  8
0
  6
Continuous
 62
     7
370
     0
100
AcDbTrace
 10
175.2678280081
 20
187.5185786898
 30
0.0
 11
178.5698280081
 21
187.0105786898
 31
0.0
 12
178.5698280081
 22
188.0265786898
 32
0.0
 13
178.5698280081
 23
188.0265786898
 33
0.0
  0
LINE
  5
483
330
47E
100
AcDbEntity
  8
0
  6
Continuous
 62
     7
370
     0
100
AcDbLine
 10
192.2678280081
 20
167.3647154144
 30
0.0
 11
192.2678280081
 21
188.5185786898
 31
0.0
  0
LINE
  5
484
330
47E
100
AcDbEntity
  8
0
  6
Continuous
 62
     7
370
     0
100
AcDbLine
 10
192.2678280081
 20
187.5185786898
 30
0.0
 11
175.2678280081
 21
187.5185786898
 31
0.0
  0
MTEXT
  5
485
330
47E
100
AcDbEntity
  8
0
  6
Continuous
 62
     7
370
     0
100
AcDbMText
 10
181.1107799801
 20
192.0303156044
 30
0.0
 40
3.5
 41
0.0
 71
     1
 72
     1
  1
17
  7
SLDTEXTSTYLE2
 73
     1
 44
1.0
  0
ENDBLK
  5
480
330
47E
100
AcDbEntity
  8
0
100
AcDbBlockEnd
  0
BLOCK
  5
609
330
608
100
AcDbEntity
  8
0
100
AcDbBlockBegin
  2
*D27
 70
     1
 10
0.0
 20
0.0
 30
0.0
  3
*D27
  1

  0
SOLID
  5
60B
330
608
100
AcDbEntity
  8
0
  6
Continuous
 62
     7
370
     0
100
AcDbTrace
 10
79.9407430578
 20
249.4128734925
 30
0.0
 11
76.6387430578
 21
249.9208734925
 31
0.0
 12
76.6387430578
 22
248.9048734925
 32
0.0
 13
76.6387430578
 23
248.9048734925
 33
0.0
  0
SOLID
  5
60C
330
608
100
AcDbEntity
  8
0
  6
Continuous
 62
     7
370
     0
100
AcDbTrace
 10
61.9390835663
 20
249.4128734925
 30
0.0
 11
65.2410835663
 21
248.9048734925
 31
0.0
 12
65.2410835663
 22
249.9208734925
 32
0.0
 13
65.2410835663
 23
249.9208734925
 33
0.0
  0
LINE
  5
60D
330
608
100
AcDbEntity
  8
0
  6
Continuous
 62
     7
370
     0
100
AcDbLine
 10
79.9407430578
 20
249.4128734925
 30
0.0
 11
61.9390835663
 21
249.4128734925
 31
0.0
  0
MTEXT
  5
60E
330
608
100
AcDbEntity
  8
0
  6
Continuous
 62
     7
370
     0
100
AcDbMText
 10
67.9791379668
 20
253.9246104071
 30
0.0
 40
3.5
 41
0.0
 71
     1
 72
     1
  1
18
  7
SLDTEXTSTYLE2
 73
     1
 44
1.0
  0
ENDBLK
  5
60A
330
608
100
AcDbEntity
  8
0
100
AcDbBlockEnd
  0
ENDSEC
  0
SECTION
  2
ENTITIES
  0
LINE
  5
48
330
1F
100
AcDbEntity
  8
SCHRIFTFELD
370
    15
100
AcDbLine
 10
20.0
 20
5.0
 30
0.0
 11
205.0
 21
5.0
 31
0.0
  0
LINE
  5
49
330
1F
100
AcDbEntity
  8
SCHRIFTFELD
100
AcDbLine
 10
63.0
 20
50.0
 30
0.0
 11
20.0
 21
50.0
 31
0.0
  0
LINE
  5
4A
330
1F
100
AcDbEntity
  8
SCHRIFTFELD
100
AcDbLine
 10
63.0
 20
55.0
 30
0.0
 11
20.0
 21
55.0
 31
0.0
  0
LINE
  5
4B
330
1F
100
AcDbEntity
  8
SCHRIFTFELD
100
AcDbLine
 10
63.0
 20
65.0
 30
0.0
 11
20.0
 21
65.0
 31
0.0
  0
LINE
  5
4C
330
1F
100
AcDbEntity
  8
SCHRIFTFELD
100
AcDbLine
 10
145.0
 20
70.0
 30
0.0
 11
20.0
 21
70.0
 31
0.0
  0
LINE
  5
4D
330
1F
100
AcDbEntity
  8
SCHRIFTFELD
100
AcDbLine
 10
63.0
 20
75.0
 30
0.0
 11
20.0
 21
75.0
 31
0.0
  0
LINE
  5
4E
330
1F
100
AcDbEntity
  8
PASSUNGEN
100
AcDbLine
 10
205.0
 20
65.0
 30
0.0
 11
145.0
 21
65.0
 31
0.0
  0
LINE
  5
4F
330
1F
100
AcDbEntity
  8
PASSUNGEN
100
AcDbLine
 10
205.0
 20
70.0
 30
0.0
 11
145.0
 21
70.0
 31
0.0
  0
LINE
  5
50
330
1F
100
AcDbEntity
  8
PASSUNGEN
100
AcDbLine
 10
205.0
 20
75.0
 30
0.0
 11
145.0
 21
75.0
 31
0.0
  0
LINE
  5
51
330
1F
100
AcDbEntity
  8
SCHRIFTFELD
100
AcDbLine
 10
31.58694
 20
12.7870941
 30
0.0
 11
31.58694
 21
9.0085449
 31
0.0
  0
LINE
  5
52
330
1F
100
AcDbEntity
  8
SCHRIFTFELD
100
AcDbLine
 10
32.71592
 20
9.0085449
 30
0.0
 11
32.71592
 21
10.5752563234
 31
0.0
  0
LINE
  5
53
330
1F
100
AcDbEntity
  8
SCHRIFTFELD
100
AcDbLine
 10
33.7081598123
 20
9.0085449234
 30
0.0
 11
33.0814798123
 21
10.5752563234
 31
0.0
  0
LINE
  5
54
330
1F
100
AcDbEntity
  8
SCHRIFTFELD
100
AcDbLine
 10
34.9427298123
 20
9.0085449234
 30
0.0
 11
34.1522598123
 21
10.5222082234
 31
0.0
  0
LINE
  5
55
330
1F
100
AcDbEntity
  8
SCHRIFTFELD
100
AcDbLine
 10
32.71592
 20
12.0818045
 30
0.0
 11
32.71592
 21
11.2350846
 31
0.0
  0
LINE
  5
56
330
1F
100
AcDbEntity
  8
SCHRIFTFELD
100
AcDbLine
 10
35.42542
 20
12.7870941
 30
0.0
 11
35.42542
 21
9.0085449
 31
0.0
  0
LINE
  5
57
330
1F
100
AcDbEntity
  8
SCHRIFTFELD
100
AcDbLine
 10
36.55437
 20
9.0085449
 30
0.0
 11
36.55437
 21
11.7733459
 31
0.0
  0
LINE
  5
58
330
1F
100
AcDbEntity
  8
SCHRIFTFELD
100
AcDbLine
 10
37.2751
 20
9.0085449
 30
0.0
 11
36.66683
 21
11.7733459
 31
0.0
  0
LINE
  5
59
330
1F
100
AcDbEntity
  8
SCHRIFTFELD
100
AcDbLine
 10
37.23184
 20
12.7870941
 30
0.0
 11
37.73871
 21
10.4831085
 31
0.0
  0
LINE
  5
5A
330
1F
100
AcDbEntity
  8
SCHRIFTFELD
100
AcDbLine
 10
37.85376
 20
10.4831085
 30
0.0
 11
38.36063
 21
12.7870941
 31
0.0
  0
LINE
  5
5B
330
1F
100
AcDbEntity
  8
SCHRIFTFELD
100
AcDbLine
 10
38.31736
 20
9.0085449
 30
0.0
 11
38.92563
 21
11.7733459
 31
0.0
  0
LINE
  5
5C
330
1F
100
AcDbEntity
  8
SCHRIFTFELD
100
AcDbLine
 10
39.03809
 20
9.0085449
 30
0.0
 11
39.03809
 21
11.7733459
 31
0.0
  0
LINE
  5
5D
330
1F
100
AcDbEntity
  8
SCHRIFTFELD
100
AcDbLine
 10
40.16705
 20
12.7870941
 30
0.0
 11
40.16705
 21
9.0085449
 31
0.0
  0
LINE
  5
5E
330
1F
100
AcDbEntity
  8
SCHRIFTFELD
100
AcDbLine
 10
40.40684
 20
9.0085449
 30
0.0
 11
41.29593
 21
12.7870941
 31
0.0
  0
LINE
  5
5F
330
1F
100
AcDbEntity
  8
SCHRIFTFELD
100
AcDbLine
 10
41.7583
 20
9.0085449
 30
0.0
 11
41.87443
 21
9.653656
 31
0.0
  0
LINE
  5
60
330
1F
100
AcDbEntity
  8
SCHRIFTFELD
100
AcDbLine
 10
42.97874
 20
9.0085449
 30
0.0
 11
42.86261
 21
9.653656
 31
0.0
  0
LINE
  5
61
330
1F
100
AcDbEntity
  8
SCHRIFTFELD
100
AcDbLine
 10
41.99054
 20
10.2987823
 30
0.0
 11
42.25597
 21
11.7733459
 31
0.0
  0
LINE
  5
62
330
1F
100
AcDbEntity
  8
SCHRIFTFELD
100
AcDbLine
 10
42.48107
 20
11.7733459
 30
0.0
 11
42.74648
 21
10.2987823
 31
0.0
  0
LINE
  5
63
330
1F
100
AcDbEntity
  8
SCHRIFTFELD
100
AcDbLine
 10
43.44112
 20
12.7870941
 30
0.0
 11
44.3302
 21
9.0085449
 31
0.0
  0
LINE
  5
64
330
1F
100
AcDbEntity
  8
SCHRIFTFELD
100
AcDbLine
 10
33.2353899852
 20
12.0818045
 30
0.0
 11
32.71592
 21
12.0818045
 31
0.0
  0
LINE
  5
65
330
1F
100
AcDbEntity
  8
SCHRIFTFELD
100
AcDbLine
 10
33.23517
 20
11.2350846
 30
0.0
 11
32.71592
 21
11.2350846
 31
0.0
  0
LINE
  5
66
330
1F
100
AcDbEntity
  8
SCHRIFTFELD
100
AcDbLine
 10
33.61906
 20
11.6189825
 30
0.0
 11
33.61905
 21
11.6981448
 31
0.0
  0
LINE
  5
67
330
1F
100
AcDbEntity
  8
SCHRIFTFELD
100
AcDbLine
 10
29.4034990489
 20
9.7391842917
 30
0.0
 11
29.48163
 21
9.73936923
 31
0.0
  0
LINE
  5
68
330
1F
100
AcDbEntity
  8
SCHRIFTFELD
100
AcDbLine
 10
25.82931
 20
9.7391822
 30
0.0
 11
25.26477
 21
9.7391822
 31
0.0
  0
LINE
  5
69
330
1F
100
AcDbEntity
  8
SCHRIFTFELD
100
AcDbLine
 10
25.829240032
 20
11.9972186
 30
0.0
 11
25.26477
 21
11.9972186
 31
0.0
  0
LINE
  5
6A
330
1F
100
AcDbEntity
  8
SCHRIFTFELD
100
AcDbLine
 10
41.99054
 20
10.2987823
 30
0.0
 11
42.74648
 21
10.2987823
 31
0.0
  0
LINE
  5
6B
330
1F
100
AcDbEntity
  8
SCHRIFTFELD
100
AcDbLine
 10
42.86261
 20
9.653656
 30
0.0
 11
41.87443
 21
9.653656
 31
0.0
  0
LINE
  5
6C
330
1F
100
AcDbEntity
  8
SCHRIFTFELD
100
AcDbLine
 10
38.92563
 20
11.7733459
 30
0.0
 11
39.03809
 21
11.7733459
 31
0.0
  0
LINE
  5
6D
330
1F
100
AcDbEntity
  8
SCHRIFTFELD
100
AcDbLine
 10
37.73871
 20
10.4831085
 30
0.0
 11
37.85376
 21
10.4831085
 31
0.0
  0
LINE
  5
6E
330
1F
100
AcDbEntity
  8
SCHRIFTFELD
100
AcDbLine
 10
36.55437
 20
11.7733459
 30
0.0
 11
36.66683
 21
11.7733459
 31
0.0
  0
LINE
  5
6F
330
1F
100
AcDbEntity
  8
SCHRIFTFELD
100
AcDbLine
 10
42.25597
 20
11.7733459
 30
0.0
 11
42.48107
 21
11.7733459
 31
0.0
  0
LINE
  5
70
330
1F
100
AcDbEntity
  8
SCHRIFTFELD
100
AcDbLine
 10
33.0814798123
 20
10.5752563234
 30
0.0
 11
32.71592
 21
10.5752563234
 31
0.0
  0
LINE
  5
71
330
1F
100
AcDbEntity
  8
SCHRIFTFELD
100
AcDbLine
 10
31.13535
 20
11.4326785
 30
0.0
 11
31.13535
 21
10.3036901
 31
0.0
  0
LINE
  5
72
330
1F
100
AcDbEntity
  8
SCHRIFTFELD
100
AcDbLine
 10
27.74849
 20
11.4327767
 30
0.0
 11
27.74849
 21
10.3036937
 31
0.0
  0
LINE
  5
73
330
1F
100
AcDbEntity
  8
SCHRIFTFELD
100
AcDbLine
 10
24.02293
 20
9.0085449
 30
0.0
 11
26.43496
 21
9.0085449
 31
0.0
  0
LINE
  5
74
330
1F
100
AcDbEntity
  8
SCHRIFTFELD
100
AcDbLine
 10
28.70601
 20
9.0085449
 30
0.0
 11
30.17784
 21
9.0085449
 31
0.0
  0
LINE
  5
75
330
1F
100
AcDbEntity
  8
SCHRIFTFELD
100
AcDbLine
 10
31.58694
 20
9.0085449
 30
0.0
 11
32.71592
 21
9.0085449
 31
0.0
  0
LINE
  5
76
330
1F
100
AcDbEntity
  8
SCHRIFTFELD
100
AcDbLine
 10
33.7081598123
 20
9.0085449234
 30
0.0
 11
34.9427298123
 21
9.0085449234
 31
0.0
  0
LINE
  5
77
330
1F
100
AcDbEntity
  8
SCHRIFTFELD
100
AcDbLine
 10
35.42542
 20
9.0085449
 30
0.0
 11
36.55437
 21
9.0085449
 31
0.0
  0
LINE
  5
78
330
1F
100
AcDbEntity
  8
SCHRIFTFELD
100
AcDbLine
 10
37.2751
 20
9.0085449
 30
0.0
 11
38.31736
 21
9.0085449
 31
0.0
  0
LINE
  5
79
330
1F
100
AcDbEntity
  8
SCHRIFTFELD
100
AcDbLine
 10
39.03809
 20
9.0085449
 30
0.0
 11
40.16705
 21
9.0085449
 31
0.0
  0
LINE
  5
7A
330
1F
100
AcDbEntity
  8
SCHRIFTFELD
100
AcDbLine
 10
40.40684
 20
9.0085449
 30
0.0
 11
41.7583
 21
9.0085449
 31
0.0
  0
LINE
  5
7B
330
1F
100
AcDbEntity
  8
SCHRIFTFELD
100
AcDbLine
 10
42.97874
 20
9.0085449
 30
0.0
 11
44.3302
 21
9.0085449
 31
0.0
  0
LINE
  5
7C
330
1F
100
AcDbEntity
  8
SCHRIFTFELD
100
AcDbLine
 10
177.33958
 20
30.0
 30
0.0
 11
177.33958
 21
40.0
 31
0.0
  0
LINE
  5
7D
330
1F
100
AcDbEntity
  8
SCHRIFTFELD
100
AcDbLine
 10
195.0
 20
25.0
 30
0.0
 11
195.0
 21
9.8227234
 31
0.0
  0
LINE
  5
7E
330
1F
100
AcDbEntity
  8
SCHRIFTFELD
100
AcDbLine
 10
177.33958
 20
35.0
 30
0.0
 11
145.0
 21
35.0
 31
0.0
  0
LINE
  5
7F
330
1F
100
AcDbEntity
  8
SCHRIFTFELD
100
AcDbLine
 10
205.0
 20
40.0
 30
0.0
 11
145.0
 21
40.0
 31
0.0
  0
LINE
  5
80
330
1F
100
AcDbEntity
  8
SCHRIFTFELD
100
AcDbLine
 10
63.0
 20
30.0
 30
0.0
 11
116.0
 21
30.0
 31
0.0
  0
LINE
  5
81
330
1F
100
AcDbEntity
  8
SCHRIFTFELD
100
AcDbLine
 10
63.0
 20
35.0
 30
0.0
 11
116.0
 21
35.0
 31
0.0
  0
LINE
  5
82
330
1F
100
AcDbEntity
  8
SCHRIFTFELD
100
AcDbLine
 10
96.0
 20
45.0
 30
0.0
 11
96.0
 21
25.0
 31
0.0
  0
LINE
  5
83
330
1F
100
AcDbEntity
  8
SCHRIFTFELD
100
AcDbLine
 10
195.0
 20
21.0
 30
0.0
 11
145.0
 21
21.0
 31
0.0
  0
LINE
  5
84
330
1F
100
AcDbEntity
  8
SCHRIFTFELD
100
AcDbLine
 10
167.93693
 20
25.0
 30
0.0
 11
167.93693
 21
21.0
 31
0.0
  0
LINE
  5
85
330
1F
100
AcDbEntity
  8
SCHRIFTFELD
100
AcDbLine
 10
177.33958
 20
25.0
 30
0.0
 11
177.33958
 21
21.0
 31
0.0
  0
LINE
  5
86
330
1F
100
AcDbEntity
  8
SCHRIFTFELD
100
AcDbLine
 10
184.72111
 20
25.0
 30
0.0
 11
184.72111
 21
21.0
 31
0.0
  0
LINE
  5
87
330
1F
100
AcDbEntity
  8
SCHRIFTFELD
100
AcDbLine
 10
205.0
 20
9.8227234
 30
0.0
 11
145.0
 21
9.8227234
 31
0.0
  0
LINE
  5
88
330
1F
100
AcDbEntity
  8
SCHRIFTFELD
370
    15
100
AcDbLine
 10
76.0
 20
45.0
 30
0.0
 11
76.0
 21
25.0
 31
0.0
  0
LINE
  5
89
330
1F
100
AcDbEntity
  8
SCHRIFTFELD
370
    15
100
AcDbLine
 10
63.0
 20
40.0
 30
0.0
 11
116.0
 21
40.0
 31
0.0
  0
LINE
  5
8A
330
1F
100
AcDbEntity
  8
FORMAT
100
AcDbLine
 10
20.0
 20
5.0
 30
0.0
 11
205.0
 21
5.0
 31
0.0
  0
LINE
  5
8B
330
1F
100
AcDbEntity
  8
SCHRIFTFELD
100
AcDbLine
 10
205.0
 20
5.0
 30
0.0
 11
205.0
 21
75.0
 31
0.0
  0
LINE
  5
8C
330
1F
100
AcDbEntity
  8
SCHRIFTFELD
370
    15
100
AcDbLine
 10
205.0
 20
25.0
 30
0.0
 11
20.0
 21
25.0
 31
0.0
  0
LINE
  5
8D
330
1F
100
AcDbEntity
  8
SCHRIFTFELD
370
    15
100
AcDbLine
 10
63.0
 20
75.0
 30
0.0
 11
63.0
 21
5.0
 31
0.0
  0
LINE
  5
8E
330
1F
100
AcDbEntity
  8
SCHRIFTFELD
370
    15
100
AcDbLine
 10
145.0
 20
5.0
 30
0.0
 11
145.0
 21
75.0
 31
0.0
  0
LINE
  5
8F
330
1F
100
AcDbEntity
  8
SCHRIFTFELD
370
    15
100
AcDbLine
 10
116.0
 20
45.0
 30
0.0
 11
116.0
 21
25.0
 31
0.0
  0
LINE
  5
90
330
1F
100
AcDbEntity
  8
SCHRIFTFELD
100
AcDbLine
 10
145.0
 20
30.0
 30
0.0
 11
205.0
 21
30.0
 31
0.0
  0
LINE
  5
91
330
1F
100
AcDbEntity
  8
SCHRIFTFELD
370
    15
100
AcDbLine
 10
205.0
 20
45.0
 30
0.0
 11
63.0
 21
45.0
 31
0.0
  0
LINE
  5
92
330
1F
100
AcDbEntity
  8
SCHRIFTFELD
370
    15
100
AcDbLine
 10
47.0
 20
5.0
 30
0.0
 11
47.0
 21
25.0
 31
0.0
  0
LINE
  5
93
330
1F
100
AcDbEntity
  8
SCHRIFTFELD
100
AcDbLine
 10
43.44112
 20
12.7870941
 30
0.0
 11
41.29593
 21
12.7870941
 31
0.0
  0
LINE
  5
94
330
1F
100
AcDbEntity
  8
SCHRIFTFELD
100
AcDbLine
 10
40.16705
 20
12.7870941
 30
0.0
 11
38.36063
 21
12.7870941
 31
0.0
  0
LINE
  5
95
330
1F
100
AcDbEntity
  8
SCHRIFTFELD
100
AcDbLine
 10
37.23184
 20
12.7870941
 30
0.0
 11
35.42542
 21
12.7870941
 31
0.0
  0
LINE
  5
96
330
1F
100
AcDbEntity
  8
SCHRIFTFELD
100
AcDbLine
 10
34.016821873
 20
12.7870941
 30
0.0
 11
31.58694
 21
12.7870941
 31
0.0
  0
LINE
  5
97
330
1F
100
AcDbEntity
  8
SCHRIFTFELD
100
AcDbLine
 10
29.81177
 20
12.7870941
 30
0.0
 11
29.0721
 21
12.7870941
 31
0.0
  0
LINE
  5
98
330
1F
100
AcDbEntity
  8
SCHRIFTFELD
100
AcDbLine
 10
26.08494
 20
12.7870941
 30
0.0
 11
24.02293
 21
12.7870941
 31
0.0
  0
LINE
  5
99
330
1F
100
AcDbEntity
  8
SCHRIFTFELD
100
AcDbLine
 10
21.9874994464
 20
20.3906557922
 30
0.0
 11
23.95901
 21
13.4786682
 31
0.0
  0
LINE
  5
9A
330
1F
100
AcDbEntity
  8
SCHRIFTFELD
100
AcDbLine
 10
23.95901
 20
13.4786682
 30
0.0
 11
25.4076
 21
13.4786682
 31
0.0
  0
LINE
  5
9B
330
1F
100
AcDbEntity
  8
SCHRIFTFELD
100
AcDbLine
 10
25.4076
 20
13.4786682
 30
0.0
 11
24.43616
 21
16.86647
 31
0.0
  0
LINE
  5
9C
330
1F
100
AcDbEntity
  8
SCHRIFTFELD
100
AcDbLine
 10
31.7889746558
 20
14.7159096165
 30
0.0
 11
33.6358208557
 21
17.9147470247
 31
0.0
  0
LINE
  5
9D
330
1F
100
AcDbEntity
  8
SCHRIFTFELD
100
AcDbLine
 10
33.6358208557
 20
17.9147470247
 30
0.0
 11
35.4826708557
 21
14.7159099247
 31
0.0
  0
LINE
  5
9E
330
1F
100
AcDbEntity
  8
SCHRIFTFELD
100
AcDbLine
 10
42.8354809074
 20
16.8664537013
 30
0.0
 11
41.864040854
 21
13.4786662304
 31
0.0
  0
LINE
  5
9F
330
1F
100
AcDbEntity
  8
SCHRIFTFELD
100
AcDbLine
 10
41.864040854
 20
13.4786662304
 30
0.0
 11
43.312630854
 21
13.4786662304
 31
0.0
  0
LINE
  5
A0
330
1F
100
AcDbEntity
  8
SCHRIFTFELD
100
AcDbLine
 10
43.312630854
 20
13.4786662304
 30
0.0
 11
45.284130854
 21
20.3906530304
 31
0.0
  0
LINE
  5
A1
330
1F
100
AcDbEntity
  8
SCHRIFTFELD
100
AcDbLine
 10
36.1013748167
 20
16.4091036444
 30
0.0
 11
33.63582
 21
20.67955
 31
0.0
  0
LINE
  5
A2
330
1F
100
AcDbEntity
  8
SCHRIFTFELD
100
AcDbLine
 10
33.63582
 20
20.67955
 30
0.0
 11
31.1702692855
 21
16.4091029365
 31
0.0
  0
LINE
  5
A3
330
1F
100
AcDbEntity
  8
SCHRIFTFELD
100
AcDbLine
 10
24.02293
 20
12.7870941
 30
0.0
 11
24.02293
 21
9.0085449
 31
0.0
  0
LINE
  5
A4
330
1F
100
AcDbEntity
  8
SCHRIFTFELD
100
AcDbLine
 10
25.26477
 20
11.9972186
 30
0.0
 11
25.26477
 21
9.7391822
 31
0.0
  0
LINE
  5
A5
330
1F
100
AcDbEntity
  8
SCHRIFTFELD
100
AcDbLine
 10
27.29615
 20
11.5890198
 30
0.0
 11
27.29615
 21
10.2066193
 31
0.0
  0
LINE
  5
A6
330
1F
100
AcDbEntity
  8
SCHRIFTFELD
100
AcDbLine
 10
26.05506
 20
11.7714169
 30
0.0
 11
26.05506
 21
9.9649953
 31
0.0
  0
LINE
  5
A7
330
1F
100
AcDbEntity
  8
SCHRIFTFELD
100
AcDbLine
 10
29.86529
 20
11.613409
 30
0.0
 11
29.86529
 21
10.1230056
 31
0.0
  0
LINE
  5
A8
330
1F
100
AcDbEntity
  8
SCHRIFTFELD
100
AcDbLine
 10
29.01856
 20
11.6131832
 30
0.0
 11
29.01856
 21
10.1232306
 31
0.0
  0
LINE
  5
A9
330
1F
100
AcDbEntity
  8
SCHRIFTFELD
100
AcDbLine
 10
29.40256
 20
11.99724121
 30
0.0
 11
29.48149
 21
11.99724121
 31
0.0
  0
LINE
  5
AA
330
1F
100
AcDbEntity
  8
SCHRIFTFELD
370
    15
100
AcDbLine
 10
63.0
 20
30.0
 30
0.0
 11
20.0
 21
30.0
 31
0.0
  0
LINE
  5
AB
330
1F
100
AcDbEntity
  8
SCHRIFTFELD
100
AcDbLine
 10
53.0
 20
75.0
 30
0.0
 11
53.0
 21
25.0
 31
0.0
  0
LINE
  5
AC
330
1F
100
AcDbEntity
  8
SCHRIFTFELD
100
AcDbLine
 10
39.0
 20
25.0
 30
0.0
 11
39.0
 21
75.0
 31
0.0
  0
LINE
  5
AD
330
1F
100
AcDbEntity
  8
SCHRIFTFELD
100
AcDbLine
 10
25.0
 20
25.0
 30
0.0
 11
25.0
 21
75.0
 31
0.0
  0
LINE
  5
AE
330
1F
100
AcDbEntity
  8
SCHRIFTFELD
100
AcDbLine
 10
63.0
 20
35.0
 30
0.0
 11
20.0
 21
35.0
 31
0.0
  0
LINE
  5
AF
330
1F
100
AcDbEntity
  8
SCHRIFTFELD
100
AcDbLine
 10
63.0
 20
40.0
 30
0.0
 11
20.0
 21
40.0
 31
0.0
  0
LINE
  5
B0
330
1F
100
AcDbEntity
  8
SCHRIFTFELD
100
AcDbLine
 10
63.0
 20
45.0
 30
0.0
 11
20.0
 21
45.0
 31
0.0
  0
LINE
  5
B1
330
1F
100
AcDbEntity
  8
PASSUNGEN
370
    15
100
AcDbLine
 10
145.0
 20
50.0
 30
0.0
 11
205.0
 21
50.0
 31
0.0
  0
LINE
  5
B2
330
1F
100
AcDbEntity
  8
PASSUNGEN
100
AcDbLine
 10
185.0
 20
75.0
 30
0.0
 11
185.0
 21
45.0
 31
0.0
  0
LINE
  5
B3
330
1F
100
AcDbEntity
  8
PASSUNGEN
100
AcDbLine
 10
165.0
 20
75.0
 30
0.0
 11
165.0
 21
45.0
 31
0.0
  0
LINE
  5
B4
330
1F
100
AcDbEntity
  8
PASSUNGEN
100
AcDbLine
 10
205.0
 20
55.0
 30
0.0
 11
145.0
 21
55.0
 31
0.0
  0
LINE
  5
B5
330
1F
100
AcDbEntity
  8
PASSUNGEN
100
AcDbLine
 10
205.0
 20
60.0
 30
0.0
 11
145.0
 21
60.0
 31
0.0
  0
LINE
  5
B6
330
1F
100
AcDbEntity
  8
SCHRIFTFELD
100
AcDbLine
 10
145.0
 20
75.0
 30
0.0
 11
63.0
 21
75.0
 31
0.0
  0
LINE
  5
B7
330
1F
100
AcDbEntity
  8
SCHRIFTFELD
370
    15
100
AcDbLine
 10
116.0
 20
45.0
 30
0.0
 11
116.0
 21
55.0
 31
0.0
  0
LINE
  5
B8
330
1F
100
AcDbEntity
  8
SCHRIFTFELD
370
    15
100
AcDbLine
 10
63.0
 20
55.0
 30
0.0
 11
145.0
 21
55.0
 31
0.0
  0
LINE
  5
B9
330
1F
100
AcDbEntity
  8
SCHRIFTFELD
100
AcDbLine
 10
15.0
 20
148.3360816337
 30
0.0
 11
2.784365125
 21
148.3360816337
 31
0.0
  0
LINE
  5
BA
330
1F
100
AcDbEntity
  8
SCHRIFTFELD
100
AcDbLine
 10
63.0
 20
60.0
 30
0.0
 11
20.0
 21
60.0
 31
0.0
  0
LINE
  5
BB
330
1F
100
AcDbEntity
  8
SCHRIFTFELD
100
AcDbLine
 10
80.5
 20
65.0
 30
0.0
 11
80.5
 21
55.0
 31
0.0
  0
LINE
  5
BC
330
1F
100
AcDbEntity
  8
SCHRIFTFELD
100
AcDbLine
 10
88.5
 20
65.0
 30
0.0
 11
88.5
 21
55.0
 31
0.0
  0
LINE
  5
BD
330
1F
100
AcDbEntity
  8
SCHRIFTFELD
100
AcDbLine
 10
96.5
 20
65.0
 30
0.0
 11
96.5
 21
55.0
 31
0.0
  0
LINE
  5
BE
330
1F
100
AcDbEntity
  8
SCHRIFTFELD
100
AcDbLine
 10
104.5
 20
65.0
 30
0.0
 11
104.5
 21
55.0
 31
0.0
  0
LINE
  5
BF
330
1F
100
AcDbEntity
  8
SCHRIFTFELD
100
AcDbLine
 10
112.5
 20
65.0
 30
0.0
 11
112.5
 21
55.0
 31
0.0
  0
LINE
  5
C0
330
1F
100
AcDbEntity
  8
SCHRIFTFELD
100
AcDbLine
 10
122.0
 20
65.0
 30
0.0
 11
122.0
 21
55.0
 31
0.0
  0
LINE
  5
C1
330
1F
100
AcDbEntity
  8
SCHRIFTFELD
100
AcDbLine
 10
133.5
 20
65.0
 30
0.0
 11
133.5
 21
55.0
 31
0.0
  0
LINE
  5
C2
330
1F
100
AcDbEntity
  8
SCHRIFTFELD
100
AcDbLine
 10
63.0
 20
60.0
 30
0.0
 11
145.0
 21
60.0
 31
0.0
  0
LINE
  5
C3
330
1F
100
AcDbEntity
  8
SCHRIFTFELD
100
AcDbLine
 10
20.0
 20
5.0
 30
0.0
 11
205.0
 21
5.0
 31
0.0
  0
LINE
  5
C4
330
1F
100
AcDbEntity
  8
SCHRIFTFELD
100
AcDbLine
 10
63.0
 20
50.0
 30
0.0
 11
116.0
 21
50.0
 31
0.0
  0
LINE
  5
C5
330
1F
100
AcDbEntity
  8
SCHRIFTFELD
100
AcDbLine
 10
20.0
 20
75.0
 30
0.0
 11
20.0
 21
5.0
 31
0.0
  0
LINE
  5
C6
330
1F
100
AcDbEntity
  8
SCHRIFTFELD
100
AcDbLine
 10
205.0
 20
292.0
 30
0.0
 11
170.2830203136
 21
292.0
 31
0.0
  0
LINE
  5
C7
330
1F
100
AcDbEntity
  8
SCHRIFTFELD
100
AcDbLine
 10
205.0
 20
292.0
 30
0.0
 11
205.0
 21
285.7480114041
 31
0.0
  0
LINE
  5
C8
330
1F
100
AcDbEntity
  8
SCHRIFTFELD
100
AcDbLine
 10
205.0
 20
285.7480114041
 30
0.0
 11
170.2830203136
 21
285.7480114041
 31
0.0
  0
LINE
  5
C9
330
1F
100
AcDbEntity
  8
SCHRIFTFELD
100
AcDbLine
 10
170.2830203136
 20
292.0
 30
0.0
 11
170.2830203136
 21
285.7480114041
 31
0.0
  0
LINE
  5
CA
330
1F
100
AcDbEntity
  8
SCHRIFTFELD
100
AcDbLine
 10
190.1899444707
 20
31.6497778828
 30
0.0
 11
190.1899444707
 21
38.0497778828
 31
0.0
  0
LINE
  5
CB
330
1F
100
AcDbEntity
  8
FORMAT
370
    15
100
AcDbLine
 10
20.0
 20
5.0
 30
0.0
 11
20.0
 21
292.0
 31
0.0
  0
LINE
  5
CC
330
1F
100
AcDbEntity
  8
FORMAT
370
    15
100
AcDbLine
 10
205.0
 20
292.0
 30
0.0
 11
205.0
 21
5.0
 31
0.0
  0
LINE
  5
CD
330
1F
100
AcDbEntity
  8
FORMAT
370
    15
100
AcDbLine
 10
205.0
 20
292.0
 30
0.0
 11
20.0
 21
292.0
 31
0.0
  0
LINE
  5
CE
330
1F
100
AcDbEntity
  8
SCHRIFTFELD
100
AcDbLine
 10
190.1899444707
 20
38.0497778828
 30
0.0
 11
183.7899444707
 21
36.4497778828
 31
0.0
  0
LINE
  5
CF
330
1F
100
AcDbEntity
  8
FORMAT
100
AcDbLine
 10
210.000634492
 20
0.0
 30
0.0
 11
210.000634492
 21
297.0
 31
0.0
  0
LINE
  5
D0
330
1F
100
AcDbEntity
  8
FORMAT
100
AcDbLine
 10
210.000634492
 20
297.0
 30
0.0
 11
0.0
 21
297.0
 31
0.0
  0
LINE
  5
D1
330
1F
100
AcDbEntity
  8
FORMAT
100
AcDbLine
 10
0.0
 20
297.0
 30
0.0
 11
0.0
 21
0.0
 31
0.0
  0
LINE
  5
D2
330
1F
100
AcDbEntity
  8
FORMAT
100
AcDbLine
 10
112.5
 20
292.0
 30
0.0
 11
112.5
 21
296.95
 31
0.0
  0
LINE
  5
D3
330
1F
100
AcDbEntity
  8
FORMAT
100
AcDbLine
 10
15.0
 20
0.05
 30
0.0
 11
15.0
 21
296.95
 31
0.0
  0
LINE
  5
D4
330
1F
100
AcDbEntity
  8
FORMAT
100
AcDbLine
 10
20.0
 20
148.5
 30
0.0
 11
15.0
 21
148.3360816337
 31
0.0
  0
LINE
  5
D5
330
1F
100
AcDbEntity
  8
FORMAT
100
AcDbLine
 10
162.5
 20
292.0
 30
0.0
 11
162.5
 21
296.95
 31
0.0
  0
LINE
  5
D6
330
1F
100
AcDbEntity
  8
FORMAT
100
AcDbLine
 10
62.5
 20
292.0
 30
0.0
 11
62.5
 21
296.95
 31
0.0
  0
LINE
  5
D7
330
1F
100
AcDbEntity
  8
FORMAT
100
AcDbLine
 10
20.0
 20
198.5
 30
0.0
 11
15.0
 21
198.5
 31
0.0
  0
LINE
  5
D8
330
1F
100
AcDbEntity
  8
FORMAT
100
AcDbLine
 10
20.0
 20
248.5
 30
0.0
 11
15.0
 21
248.5
 31
0.0
  0
LINE
  5
D9
330
1F
100
AcDbEntity
  8
FORMAT
100
AcDbLine
 10
20.0
 20
98.5
 30
0.0
 11
15.0
 21
98.5
 31
0.0
  0
LINE
  5
DA
330
1F
100
AcDbEntity
  8
FORMAT
100
AcDbLine
 10
20.0
 20
48.5
 30
0.0
 11
15.0
 21
48.5
 31
0.0
  0
LINE
  5
DB
330
1F
100
AcDbEntity
  8
FORMAT
100
AcDbLine
 10
210.000634492
 20
0.0
 30
0.0
 11
0.0
 21
0.0
 31
0.0
  0
LINE
  5
DC
330
1F
100
AcDbEntity
  8
SCHRIFTFELD
100
AcDbLine
 10
183.7899444707
 20
36.4497778828
 30
0.0
 11
183.7899444707
 21
33.2497778828
 31
0.0
  0
LINE
  5
DD
330
1F
100
AcDbEntity
  8
SCHRIFTFELD
100
AcDbLine
 10
183.7899444707
 20
33.2497778828
 30
0.0
 11
190.1899444707
 21
31.6497778828
 31
0.0
  0
LINE
  5
DE
330
1F
100
AcDbEntity
  8
SCHRIFTFELD
100
AcDbLine
 10
181.6604174707
 20
34.8497778828
 30
0.0
 11
201.5976632989
 21
34.8497778828
 31
0.0
  0
LINE
  5
DF
330
1F
100
AcDbEntity
  8
SCHRIFTFELD
100
AcDbLine
 10
196.2126194707
 20
38.6897778828
 30
0.0
 11
196.2126194707
 21
31.0097778828
 31
0.0
  0
ARC
  5
E0
330
1F
100
AcDbEntity
  8
SCHRIFTFELD
100
AcDbCircle
 10
33.8042099288
 20
11.6378876498
 30
0.0
 40
1.168708391321751
100
AcDbArc
 50
287.3259516138
 51
79.51836
  0
ARC
  5
E1
330
1F
100
AcDbEntity
  8
SCHRIFTFELD
100
AcDbCircle
 10
33.23517
 20
11.61898258
 30
0.0
 40
0.3838979799999915
100
AcDbArc
 50
270.0
 51
0.02033
  0
ARC
  5
E2
330
1F
100
AcDbEntity
  8
SCHRIFTFELD
100
AcDbCircle
 10
33.23539
 20
11.69814478
 30
0.0
 40
0.3836597200000273
100
AcDbArc
 50
0.02032509
 51
90.0000022059
  0
ARC
  5
E3
330
1F
100
AcDbEntity
  8
SCHRIFTFELD
100
AcDbCircle
 10
29.4025899975
 20
10.1232316759
 30
0.0
 40
0.3840484600000156
100
AcDbArc
 50
180.0
 51
270.1356205386
  0
ARC
  5
E4
330
1F
100
AcDbEntity
  8
SCHRIFTFELD
100
AcDbCircle
 10
29.48163
 20
10.1230056
 30
0.0
 40
0.3836363699999961
100
AcDbArc
 50
270.0
 51
0.0
  0
ARC
  5
E5
330
1F
100
AcDbEntity
  8
SCHRIFTFELD
100
AcDbCircle
 10
25.82924
 20
11.77141698
 30
0.0
 40
0.2258016199999955
100
AcDbArc
 50
0.0
 51
89.9999918797
  0
ARC
  5
E6
330
1F
100
AcDbEntity
  8
SCHRIFTFELD
100
AcDbCircle
 10
29.10317
 20
11.4327767
 30
0.0
 40
1.354653200000009
100
AcDbArc
 50
91.314114
 51
180.0
  0
ARC
  5
E7
330
1F
100
AcDbEntity
  8
SCHRIFTFELD
100
AcDbCircle
 10
29.78058
 20
11.4326785
 30
0.0
 40
1.354795500000005
100
AcDbArc
 50
0.0
 51
88.68078
  0
ARC
  5
E8
330
1F
100
AcDbEntity
  8
SCHRIFTFELD
100
AcDbCircle
 10
29.7807359
 20
10.3036901
 30
0.0
 40
1.354614099999989
100
AcDbArc
 50
287.04573
 51
0.0
  0
ARC
  5
E9
330
1F
100
AcDbEntity
  8
SCHRIFTFELD
100
AcDbCircle
 10
29.10314
 20
10.3036937
 30
0.0
 40
1.354638400000012
100
AcDbArc
 50
180.0
 51
252.95289
  0
ARC
  5
EA
330
1F
100
AcDbEntity
  8
SCHRIFTFELD
100
AcDbCircle
 10
33.63583
 20
34.675516
 30
0.0
 40
18.43206000000001
100
AcDbArc
 50
230.8051
 51
262.3128
  0
ARC
  5
EB
330
1F
100
AcDbEntity
  8
SCHRIFTFELD
100
AcDbCircle
 10
33.6358197508
 20
34.6755175177
 30
0.0
 40
20.04484754288882
100
AcDbArc
 50
242.6803787131
 51
260.4333
  0
ARC
  5
EC
330
1F
100
AcDbEntity
  8
SCHRIFTFELD
100
AcDbCircle
 10
33.6361293669
 20
34.6756412914
 30
0.0
 40
20.04502105413799
100
AcDbArc
 50
260.4324861136
 51
264.7126755823
  0
ARC
  5
ED
330
1F
100
AcDbEntity
  8
SCHRIFTFELD
100
AcDbCircle
 10
33.6358108554
 20
34.6754840277
 30
0.0
 40
20.04483699696208
100
AcDbArc
 50
275.2865271109
 51
297.31967
  0
ARC
  5
EE
330
1F
100
AcDbEntity
  8
SCHRIFTFELD
100
AcDbCircle
 10
33.6358101492
 20
34.6754978947
 30
0.0
 40
18.43204188472597
100
AcDbArc
 50
277.68722
 51
309.1949064148
  0
ARC
  5
EF
330
1F
100
AcDbEntity
  8
SCHRIFTFELD
100
AcDbCircle
 10
26.05552
 20
11.5458729
 30
0.0
 40
1.241316800000009
100
AcDbArc
 50
1.991844
 51
88.642282
  0
ARC
  5
F0
330
1F
100
AcDbEntity
  8
SCHRIFTFELD
100
AcDbCircle
 10
26.05504
 20
10.1908583
 30
0.0
 40
1.241873300000006
100
AcDbArc
 50
287.81417
 51
0.72756
  0
ARC
  5
F1
330
1F
100
AcDbEntity
  8
SCHRIFTFELD
100
AcDbCircle
 10
25.82931
 20
9.9649953
 30
0.0
 40
0.2257190600000207
100
AcDbArc
 50
270.0
 51
0.0
  0
ARC
  5
F2
330
1F
100
AcDbEntity
  8
SCHRIFTFELD
100
AcDbCircle
 10
29.40256
 20
11.6131832
 30
0.0
 40
0.3840580099999933
100
AcDbArc
 50
90.0
 51
180.0
  0
ARC
  5
F3
330
1F
100
AcDbEntity
  8
SCHRIFTFELD
100
AcDbCircle
 10
29.48149
 20
11.613409
 30
0.0
 40
0.3837786199999975
100
AcDbArc
 50
0.0
 51
90.0
  0
CIRCLE
  5
F4
330
1F
100
AcDbEntity
  8
SCHRIFTFELD
100
AcDbCircle
 10
202.0180595153
 20
289.0664899162
 30
0.0
 40
2.508973376742263
  0
CIRCLE
  5
F5
330
1F
100
AcDbEntity
  8
SCHRIFTFELD
100
AcDbCircle
 10
196.2126194707
 20
34.8497778828
 30
0.0
 40
3.200000000000056
  0
CIRCLE
  5
F6
330
1F
100
AcDbEntity
  8
SCHRIFTFELD
100
AcDbCircle
 10
196.2126194707
 20
34.8497778828
 30
0.0
 40
1.599999999999969
  0
POINT
  5
F7
330
1F
100
AcDbEntity
  8
SCHRIFTFELD
100
AcDbPoint
 10
0.0
 20
0.0
 30
0.0
  0
MTEXT
  5
11B
330
1F
100
AcDbEntity
  8
FORMAT
100
AcDbMText
 10
16.3017361611
 20
25.2409035969
 30
0.0
 40
3.5
 41
0.0
 71
     1
 72
     1
  1
F
  7
SLDTEXTSTYLE0
 73
     1
 44
1.0
  0
MTEXT
  5
11C
330
1F
100
AcDbEntity
  8
FORMAT
100
AcDbMText
 10
16.1923610559
 20
75.2409035969
 30
0.0
 40
3.5
 41
0.0
 71
     1
 72
     1
  1
E
  7
SLDTEXTSTYLE0
 73
     1
 44
1.0
  0
MTEXT
  5
11D
330
1F
100
AcDbEntity
  8
FORMAT
100
AcDbMText
 10
16.0854167026
 20
125.2409035969
 30
0.0
 40
3.5
 41
0.0
 71
     1
 72
     1
  1
D
  7
SLDTEXTSTYLE0
 73
     1
 44
1.0
  0
MTEXT
  5
11E
330
1F
100
AcDbEntity
  8
FORMAT
100
AcDbMText
 10
16.0854167026
 20
175.2409035969
 30
0.0
 40
3.5
 41
0.0
 71
     1
 72
     1
  1
C
  7
SLDTEXTSTYLE0
 73
     1
 44
1.0
  0
MTEXT
  5
11F
330
1F
100
AcDbEntity
  8
FORMAT
100
AcDbMText
 10
16.1923610559
 20
225.2409035969
 30
0.0
 40
3.5
 41
0.0
 71
     1
 72
     1
  1
B
  7
SLDTEXTSTYLE0
 73
     1
 44
1.0
  0
MTEXT
  5
120
330
1F
100
AcDbEntity
  8
FORMAT
100
AcDbMText
 10
16.1923610559
 20
275.2409035969
 30
0.0
 40
3.5
 41
0.0
 71
     1
 72
     1
  1
A
  7
SLDTEXTSTYLE0
 73
     1
 44
1.0
  0
MTEXT
  5
121
330
1F
100
AcDbEntity
  8
FORMAT
100
AcDbMText
 10
186.4086805144
 20
296.2159035969
 30
0.0
 40
3.5
 41
0.0
 71
     1
 72
     1
  1
4
  7
SLDTEXTSTYLE0
 73
     1
 44
1.0
  0
MTEXT
  5
122
330
1F
100
AcDbEntity
  8
FORMAT
100
AcDbMText
 10
136.4086805144
 20
296.2159035969
 30
0.0
 40
3.5
 41
0.0
 71
     1
 72
     1
  1
3
  7
SLDTEXTSTYLE0
 73
     1
 44
1.0
  0
MTEXT
  5
123
330
1F
100
AcDbEntity
  8
FORMAT
100
AcDbMText
 10
86.4086805144
 20
296.2159035969
 30
0.0
 40
3.5
 41
0.0
 71
     1
 72
     1
  1
2
  7
SLDTEXTSTYLE0
 73
     1
 44
1.0
  0
MTEXT
  5
124
330
1F
100
AcDbEntity
  8
FORMAT
100
AcDbMText
 10
36.4086805144
 20
296.2159035969
 30
0.0
 40
3.5
 41
0.0
 71
     1
 72
     1
  1
1
  7
SLDTEXTSTYLE0
 73
     1
 44
1.0
  0
MTEXT
  5
126
330
1F
100
AcDbEntity
  8
SCHRIFTFELD
100
AcDbMText
 10
205.8742485844
 20
5.2612216116
 30
0.0
 40
1.5875
 41
0.0
 71
     1
 72
     1
  1
WN 00-010.4
  7
SLDTEXTSTYLE1
 11
-3.491481338843133E-15
 21
1.0
 31
0.0
 73
     1
 44
1.0
  0
INSERT
  5
12E
330
1F
100
AcDbEntity
  8
FORMAT
100
AcDbBlockReference
  2
SW_NOTE_0
 10
6.2574496053
 20
4.959604216
 30
0.0
  0
INSERT
  5
136
330
1F
100
AcDbEntity
  8
FORMAT
100
AcDbBlockReference
  2
SW_NOTE_1
 10
6.0480763031
 20
194.8366945878
 30
0.0
  0
MTEXT
  5
137
330
1F
100
AcDbEntity
  8
SCHRIFTFELD
100
AcDbMText
 10
118.7104187569
 20
4.2969241593
 30
0.0
 40
2.6458333333
 41
0.0
 71
     1
 72
     1
  1
*** Zeichnung unterliegt nicht dem Änderungsdienst ***
  7
SLDTEXTSTYLE1
 73
     1
 44
1.0
  0
MTEXT
  5
139
330
1F
100
AcDbEntity
  8
SCHRIFTFELD
100
AcDbMText
 10
25.8696148627
 20
68.5694647514
 30
0.0
 40
2.38125
 41
0.0
 71
     1
 72
     1
  1
-
  7
SLDTEXTSTYLE2
 73
     1
 44
1.0
  0
MTEXT
  5
13A
330
1F
100
AcDbEntity
  8
SCHRIFTFELD
100
AcDbMText
 10
39.8696148627
 20
68.5694647514
 30
0.0
 40
2.38125
 41
0.0
 71
     1
 72
     1
  1
-
  7
SLDTEXTSTYLE2
 73
     1
 44
1.0
  0
MTEXT
  5
13B
330
1F
100
AcDbEntity
  8
SCHRIFTFELD
100
AcDbMText
 10
53.8696148627
 20
68.5694647514
 30
0.0
 40
2.38125
 41
0.0
 71
     1
 72
     1
  1
-
  7
SLDTEXTSTYLE2
 73
     1
 44
1.0
  0
MTEXT
  5
13C
330
1F
100
AcDbEntity
  8
SCHRIFTFELD
100
AcDbMText
 10
25.8231899419
 20
38.3682243129
 30
0.0
 40
2.38125
 41
0.0
 71
     1
 72
     1
  1
-
  7
SLDTEXTSTYLE2
 73
     1
 44
1.0
  0
MTEXT
  5
13D
330
1F
100
AcDbEntity
  8
SCHRIFTFELD
100
AcDbMText
 10
39.8231899419
 20
38.3682243129
 30
0.0
 40
2.38125
 41
0.0
 71
     1
 72
     1
  1
-
  7
SLDTEXTSTYLE2
 73
     1
 44
1.0
  0
MTEXT
  5
13E
330
1F
100
AcDbEntity
  8
SCHRIFTFELD
100
AcDbMText
 10
53.8231899419
 20
38.3682243129
 30
0.0
 40
2.38125
 41
0.0
 71
     1
 72
     1
  1
-
  7
SLDTEXTSTYLE2
 73
     1
 44
1.0
  0
MTEXT
  5
13F
330
1F
100
AcDbEntity
  8
SCHRIFTFELD
100
AcDbMText
 10
25.8231899419
 20
43.2300765552
 30
0.0
 40
2.38125
 41
0.0
 71
     1
 72
     1
  1
-
  7
SLDTEXTSTYLE2
 73
     1
 44
1.0
  0
MTEXT
  5
140
330
1F
100
AcDbEntity
  8
SCHRIFTFELD
100
AcDbMText
 10
39.8231899419
 20
43.2300765552
 30
0.0
 40
2.38125
 41
0.0
 71
     1
 72
     1
  1
-
  7
SLDTEXTSTYLE2
 73
     1
 44
1.0
  0
MTEXT
  5
141
330
1F
100
AcDbEntity
  8
SCHRIFTFELD
100
AcDbMText
 10
53.8231899419
 20
43.2300765552
 30
0.0
 40
2.38125
 41
0.0
 71
     1
 72
     1
  1
-
  7
SLDTEXTSTYLE2
 73
     1
 44
1.0
  0
MTEXT
  5
142
330
1F
100
AcDbEntity
  8
SCHRIFTFELD
100
AcDbMText
 10
25.8231899419
 20
48.5880361692
 30
0.0
 40
2.38125
 41
0.0
 71
     1
 72
     1
  1
-
  7
SLDTEXTSTYLE2
 73
     1
 44
1.0
  0
MTEXT
  5
143
330
1F
100
AcDbEntity
  8
SCHRIFTFELD
100
AcDbMText
 10
39.8231899419
 20
48.5880361692
 30
0.0
 40
2.38125
 41
0.0
 71
     1
 72
     1
  1
-
  7
SLDTEXTSTYLE2
 73
     1
 44
1.0
  0
MTEXT
  5
144
330
1F
100
AcDbEntity
  8
SCHRIFTFELD
100
AcDbMText
 10
53.8231899419
 20
48.5880361692
 30
0.0
 40
2.38125
 41
0.0
 71
     1
 72
     1
  1
-
  7
SLDTEXTSTYLE2
 73
     1
 44
1.0
  0
MTEXT
  5
145
330
1F
100
AcDbEntity
  8
SCHRIFTFELD
100
AcDbMText
 10
25.8231899419
 20
53.6483313603
 30
0.0
 40
2.38125
 41
0.0
 71
     1
 72
     1
  1
-
  7
SLDTEXTSTYLE2
 73
     1
 44
1.0
  0
MTEXT
  5
146
330
1F
100
AcDbEntity
  8
SCHRIFTFELD
100
AcDbMText
 10
39.8231899419
 20
53.6483313603
 30
0.0
 40
2.38125
 41
0.0
 71
     1
 72
     1
  1
-
  7
SLDTEXTSTYLE2
 73
     1
 44
1.0
  0
MTEXT
  5
147
330
1F
100
AcDbEntity
  8
SCHRIFTFELD
100
AcDbMText
 10
53.8231899419
 20
53.6483313603
 30
0.0
 40
2.38125
 41
0.0
 71
     1
 72
     1
  1
-
  7
SLDTEXTSTYLE2
 73
     1
 44
1.0
  0
MTEXT
  5
148
330
1F
100
AcDbEntity
  8
SCHRIFTFELD
100
AcDbMText
 10
25.8231899419
 20
58.6094050769
 30
0.0
 40
2.38125
 41
0.0
 71
     1
 72
     1
  1
-
  7
SLDTEXTSTYLE2
 73
     1
 44
1.0
  0
MTEXT
  5
149
330
1F
100
AcDbEntity
  8
SCHRIFTFELD
100
AcDbMText
 10
39.8231899419
 20
58.6094050769
 30
0.0
 40
2.38125
 41
0.0
 71
     1
 72
     1
  1
-
  7
SLDTEXTSTYLE2
 73
     1
 44
1.0
  0
MTEXT
  5
14A
330
1F
100
AcDbEntity
  8
SCHRIFTFELD
100
AcDbMText
 10
53.8231899419
 20
58.6094050769
 30
0.0
 40
2.38125
 41
0.0
 71
     1
 72
     1
  1
-
  7
SLDTEXTSTYLE2
 73
     1
 44
1.0
  0
MTEXT
  5
14B
330
1F
100
AcDbEntity
  8
SCHRIFTFELD
100
AcDbMText
 10
25.8231899419
 20
63.4712573193
 30
0.0
 40
2.38125
 41
0.0
 71
     1
 72
     1
  1
-
  7
SLDTEXTSTYLE2
 73
     1
 44
1.0
  0
MTEXT
  5
14C
330
1F
100
AcDbEntity
  8
SCHRIFTFELD
100
AcDbMText
 10
39.8231899419
 20
63.4712573193
 30
0.0
 40
2.38125
 41
0.0
 71
     1
 72
     1
  1
-
  7
SLDTEXTSTYLE2
 73
     1
 44
1.0
  0
MTEXT
  5
14D
330
1F
100
AcDbEntity
  8
SCHRIFTFELD
100
AcDbMText
 10
53.8231899419
 20
63.4712573193
 30
0.0
 40
2.38125
 41
0.0
 71
     1
 72
     1
  1
-
  7
SLDTEXTSTYLE2
 73
     1
 44
1.0
  0
MTEXT
  5
14E
330
1F
100
AcDbEntity
  8
SCHRIFTFELD
100
AcDbMText
 10
77.83508
 20
28.6963798011
 30
0.0
 40
2.5
 41
0.0
 71
     1
 72
     1
  1
*
  7
SLDTEXTSTYLE2
 73
     1
 44
1.0
  0
MTEXT
  5
14F
330
1F
100
AcDbEntity
  8
SCHRIFTFELD
100
AcDbMText
 10
96.7832290605
 20
28.6963798011
 30
0.0
 40
2.5
 41
0.0
 71
     1
 72
     1
  1
*
  7
SLDTEXTSTYLE2
 73
     1
 44
1.0
  0
MTEXT
  5
150
330
1F
100
AcDbEntity
  8
SCHRIFTFELD
100
AcDbMText
 10
53.7735792047
 20
73.6219485512
 30
0.0
 40
2.38125
 41
0.0
 71
     1
 72
     1
  1
-
  7
SLDTEXTSTYLE2
 73
     1
 44
1.0
  0
MTEXT
  5
151
330
1F
100
AcDbEntity
  8
SCHRIFTFELD
100
AcDbMText
 10
25.8728006791
 20
73.4153372854
 30
0.0
 40
2.38
 41
0.0
 71
     1
 72
     1
  1
-
  7
SLDTEXTSTYLE2
 73
     1
 44
1.0
  0
MTEXT
  5
152
330
1F
100
AcDbEntity
  8
SCHRIFTFELD
100
AcDbMText
 10
39.8728006791
 20
73.6219485512
 30
0.0
 40
2.38125
 41
0.0
 71
     1
 72
     1
  1
-
  7
SLDTEXTSTYLE2
 73
     1
 44
1.0
  0
MTEXT
  5
153
330
1F
100
AcDbEntity
  8
SCHRIFTFELD
100
AcDbMText
 10
53.7735792047
 20
33.6219485512
 30
0.0
 40
2.38125
 41
0.0
 71
     1
 72
     1
  1
-
  7
SLDTEXTSTYLE2
 73
     1
 44
1.0
  0
MTEXT
  5
154
330
1F
100
AcDbEntity
  8
SCHRIFTFELD
100
AcDbMText
 10
39.8728006791
 20
33.6219485512
 30
0.0
 40
2.38125
 41
0.0
 71
     1
 72
     1
  1
-
  7
SLDTEXTSTYLE2
 73
     1
 44
1.0
  0
MTEXT
  5
155
330
1F
100
AcDbEntity
  8
SCHRIFTFELD
100
AcDbMText
 10
25.8728006791
 20
33.6219485512
 30
0.0
 40
2.38125
 41
0.0
 71
     1
 72
     1
  1
-
  7
SLDTEXTSTYLE2
 73
     1
 44
1.0
  0
MTEXT
  5
156
330
1F
100
AcDbEntity
  8
SCHRIFTFELD
100
AcDbMText
 10
86.7416666001
 20
49.0459642992
 30
0.0
 40
2.6458333333
 41
0.0
 71
     1
 72
     1
  1
-
  7
SLDTEXTSTYLE2
 73
     1
 44
1.0
  0
MTEXT
  5
157
330
1F
100
AcDbEntity
  8
SCHRIFTFELD
100
AcDbMText
 10
196.3599594282
 20
12.4329990639
 30
0.0
 40
1.5875
 41
0.0
 71
     1
 72
     1
  1
von
  7
SLDTEXTSTYLE1
 73
     1
 44
1.0
  0
MTEXT
  5
158
330
1F
100
AcDbEntity
  8
SCHRIFTFELD
100
AcDbMText
 10
171.0026979823
 20
29.3294617788
 30
0.0
 40
2.6458333333
 41
0.0
 71
     1
 72
     1
  1
*
  7
SLDTEXTSTYLE1
 73
     1
 44
1.0
  0
MTEXT
  5
159
330
1F
100
AcDbEntity
  8
SCHRIFTFELD
100
AcDbMText
 10
174.4422376402
 20
38.9164685622
 30
0.0
 40
2.1166666667
 41
0.0
 71
     1
 72
     1
  1
*
  7
SLDTEXTSTYLE1
 73
     1
 44
1.0
  0
MTEXT
  5
15A
330
1F
100
AcDbEntity
  8
SCHRIFTFELD
100
AcDbMText
 10
81.2313765773
 20
54.4995696303
 30
0.0
 40
1.8520833333
 41
0.0
 71
     1
 72
     1
  1
3
  7
SLDTEXTSTYLE1
 73
     1
 44
1.0
  0
MTEXT
  5
15B
330
1F
100
AcDbEntity
  8
SCHRIFTFELD
100
AcDbMText
 10
64.0500801809
 20
48.7288045434
 30
0.0
 40
2.1166666667
 41
0.0
 71
     1
 72
     1
  1
Gewicht [g]
  7
SLDTEXTSTYLE1
 73
     1
 44
1.0
  0
MTEXT
  5
15C
330
1F
100
AcDbEntity
  8
SCHRIFTFELD
100
AcDbMText
 10
146.3231787132
 20
8.7027381927
 30
0.0
 40
2.1166666667
 41
0.0
 71
     1
 72
     1
  1
Var.:
  7
SLDTEXTSTYLE1
 73
     1
 44
1.0
  0
MTEXT
  5
15D
330
1F
100
AcDbEntity
  8
SCHRIFTFELD
100
AcDbMText
 10
63.736499679
 20
58.6660898175
 30
0.0
 40
2.1166666667
 41
0.0
 71
     1
 72
     1
  1
-
  7
SLDTEXTSTYLE1
 73
     1
 44
1.0
  0
INSERT
  5
163
330
1F
100
AcDbEntity
  8
SCHRIFTFELD
100
AcDbBlockReference
  2
SW_NOTE_2
 10
83.7893747911
 20
67.807074303
 30
0.0
  0
MTEXT
  5
164
330
1F
100
AcDbEntity
  8
SCHRIFTFELD
100
AcDbMText
 10
185.1883952481
 20
23.8466033568
 30
0.0
 40
1.5875
 41
0.0
 71
     1
 72
     1
  1
Zust/Cond
  7
SLDTEXTSTYLE1
 73
     1
 44
1.0
  0
MTEXT
  5
165
330
1F
100
AcDbEntity
  8
SCHRIFTFELD
100
AcDbMText
 10
177.7497832829
 20
23.8466033568
 30
0.0
 40
1.5875
 41
0.0
 71
     1
 72
     1
  1
Art/Typ
  7
SLDTEXTSTYLE1
 73
     1
 44
1.0
  0
MTEXT
  5
166
330
1F
100
AcDbEntity
  8
SCHRIFTFELD
100
AcDbMText
 10
170.948766629
 20
23.8466033568
 30
0.0
 40
1.5875
 41
0.0
 71
     1
 72
     1
  1
Var.
  7
SLDTEXTSTYLE1
 73
     1
 44
1.0
  0
MTEXT
  5
167
330
1F
100
AcDbEntity
  8
SCHRIFTFELD
100
AcDbMText
 10
145.5592244065
 20
23.8466033568
 30
0.0
 40
1.5875
 41
0.0
 71
     1
 72
     1
  1
Zeichng-Nr/Drawing-No
  7
SLDTEXTSTYLE1
 73
     1
 44
1.0
  0
MTEXT
  5
168
330
1F
100
AcDbEntity
  8
SCHRIFTFELD
100
AcDbMText
 10
117.396868557
 20
49.2610056279
 30
0.0
 40
2.6458333333
 41
0.0
 71
     1
 72
     1
  1
ISO 13715
  7
SLDTEXTSTYLE1
 73
     1
 44
1.0
  0
MTEXT
  5
169
330
1F
100
AcDbEntity
  8
SCHRIFTFELD
100
AcDbMText
 10
86.7416666001
 20
73.9918218523
 30
0.0
 40
2.6458333333
 41
0.0
 71
     1
 72
     1
  1
-
  7
SLDTEXTSTYLE1
 73
     1
 44
1.0
  0
MTEXT
  5
16A
330
1F
100
AcDbEntity
  8
SCHRIFTFELD
100
AcDbMText
 10
22.1722018514
 20
73.8788044045
 30
0.0
 40
2.1166666667
 41
0.0
 71
     1
 72
     1
  1
9
  7
SLDTEXTSTYLE1
 73
     1
 44
1.0
  0
MTEXT
  5
16B
330
1F
100
AcDbEntity
  8
SCHRIFTFELD
100
AcDbMText
 10
22.1722018514
 20
68.562944477
 30
0.0
 40
2.1166666667
 41
0.0
 71
     1
 72
     1
  1
8
  7
SLDTEXTSTYLE1
 73
     1
 44
1.0
  0
MTEXT
  5
16C
330
1F
100
AcDbEntity
  8
SCHRIFTFELD
100
AcDbMText
 10
22.1722018514
 20
63.933184127
 30
0.0
 40
2.1166666667
 41
0.0
 71
     1
 72
     1
  1
7
  7
SLDTEXTSTYLE1
 73
     1
 44
1.0
  0
MTEXT
  5
16D
330
1F
100
AcDbEntity
  8
SCHRIFTFELD
100
AcDbMText
 10
22.1722018514
 20
58.7872697684
 30
0.0
 40
2.1166666667
 41
0.0
 71
     1
 72
     1
  1
6
  7
SLDTEXTSTYLE1
 73
     1
 44
1.0
  0
MTEXT
  5
16E
330
1F
100
AcDbEntity
  8
SCHRIFTFELD
100
AcDbMText
 10
22.1722018514
 20
53.5032665684
 30
0.0
 40
2.1166666667
 41
0.0
 71
     1
 72
     1
  1
5
  7
SLDTEXTSTYLE1
 73
     1
 44
1.0
  0
MTEXT
  5
16F
330
1F
100
AcDbEntity
  8
SCHRIFTFELD
100
AcDbMText
 10
22.1722018514
 20
48.7288045434
 30
0.0
 40
2.1166666667
 41
0.0
 71
     1
 72
     1
  1
4
  7
SLDTEXTSTYLE1
 73
     1
 44
1.0
  0
MTEXT
  5
170
330
1F
100
AcDbEntity
  8
SCHRIFTFELD
100
AcDbMText
 10
22.1722018514
 20
43.1897435314
 30
0.0
 40
2.1166666667
 41
0.0
 71
     1
 72
     1
  1
3
  7
SLDTEXTSTYLE1
 73
     1
 44
1.0
  0
MTEXT
  5
171
330
1F
100
AcDbEntity
  8
SCHRIFTFELD
100
AcDbMText
 10
22.1722018514
 20
38.7470115434
 30
0.0
 40
2.1166666667
 41
0.0
 71
     1
 72
     1
  1
2
  7
SLDTEXTSTYLE1
 73
     1
 44
1.0
  0
MTEXT
  5
172
330
1F
100
AcDbEntity
  8
SCHRIFTFELD
100
AcDbMText
 10
22.1722018514
 20
33.6336605434
 30
0.0
 40
2.1166666667
 41
0.0
 71
     1
 72
     1
  1
1
  7
SLDTEXTSTYLE1
 73
     1
 44
1.0
  0
INSERT
  5
178
330
1F
100
AcDbEntity
  8
SCHRIFTFELD
100
AcDbBlockReference
  2
SW_NOTE_3
 10
63.3760176924
 20
72.4773440774
 30
0.0
  0
MTEXT
  5
179
330
1F
100
AcDbEntity
  8
SCHRIFTFELD
100
AcDbMText
 10
202.0835315938
 20
12.4329990639
 30
0.0
 40
1.5875
 41
0.0
 71
     1
 72
     1
  1
Bl.
  7
SLDTEXTSTYLE1
 73
     1
 44
1.0
  0
INSERT
  5
17F
330
1F
100
AcDbEntity
  8
SCHRIFTFELD
100
AcDbBlockReference
  2
SW_NOTE_4
 10
196.0162235135
 20
22.0127400903
 30
0.0
  0
MTEXT
  5
180
330
1F
100
AcDbEntity
  8
SCHRIFTFELD
100
AcDbMText
 10
145.5592244065
 20
28.7972606943
 30
0.0
 40
2.1166666667
 41
0.0
 71
     1
 72
     1
  1
Ersatz/Replacem.:
  7
SLDTEXTSTYLE1
 73
     1
 44
1.0
  0
MTEXT
  5
181
330
1F
100
AcDbEntity
  8
SCHRIFTFELD
100
AcDbMText
 10
145.4649583132
 20
33.7804055652
 30
0.0
 40
2.1166666667
 41
0.0
 71
     1
 72
     1
  1
Format:
  7
SLDTEXTSTYLE1
 73
     1
 44
1.0
  0
MTEXT
  5
182
330
1F
100
AcDbEntity
  8
SCHRIFTFELD
100
AcDbMText
 10
145.4649583132
 20
38.916468504
 30
0.0
 40
2.1166666667
 41
0.0
 71
     1
 72
     1
  1
DIS:
  7
SLDTEXTSTYLE1
 73
     1
 44
1.0
  0
MTEXT
  5
183
330
1F
100
AcDbEntity
  8
SCHRIFTFELD
100
AcDbMText
 10
145.5441106415
 20
43.9622193772
 30
0.0
 40
2.38125
 41
0.0
 71
     1
 72
     1
  1
© DORMA GmbH+Co.KG (DE) Ennepetal
  7
SLDTEXTSTYLE1
 73
     1
 44
1.0
  0
MTEXT
  5
184
330
1F
100
AcDbEntity
  8
PASSUNGEN
100
AcDbMText
 10
167.7885002833
 20
48.1966034008
 30
0.0
 40
1.5875
 41
0.0
 71
     1
 72
     1
  1
Max.
  7
SLDTEXTSTYLE1
 73
     1
 44
1.0
  0
MTEXT
  5
185
330
1F
100
AcDbEntity
  8
PASSUNGEN
100
AcDbMText
 10
187.8614808725
 20
48.1966034008
 30
0.0
 40
1.5875
 41
0.0
 71
     1
 72
     1
  1
Min.
  7
SLDTEXTSTYLE1
 73
     1
 44
1.0
  0
MTEXT
  5
186
330
1F
100
AcDbEntity
  8
PASSUNGEN
100
AcDbMText
 10
145.4669578187
 20
48.1966034008
 30
0.0
 40
1.5875
 41
0.0
 71
     1
 72
     1
  1
Passungen/basis fit
  7
SLDTEXTSTYLE1
 73
     1
 44
1.0
  0
MTEXT
  5
187
330
1F
100
AcDbEntity
  8
SCHRIFTFELD
100
AcDbMText
 10
25.3645038814
 20
27.0966034732
 30
0.0
 40
1.5875
 41
0.0
 71
     1
 72
     1
  1
50000000xxxx
  7
SLDTEXTSTYLE1
 73
     1
 44
1.0
  0
MTEXT
  5
188
330
1F
100
AcDbEntity
  8
SCHRIFTFELD
100
AcDbMText
 10
25.4759147817
 20
29.2132701143
 30
0.0
 40
1.5875
 41
0.0
 71
     1
 72
     1
  1
Change No.
  7
SLDTEXTSTYLE1
 73
     1
 44
1.0
  0
INSERT
  5
18E
330
1F
100
AcDbEntity
  8
SCHRIFTFELD
100
AcDbBlockReference
  2
SW_NOTE_5
 10
20.9013367022
 20
27.1668750774
 30
0.0
  0
MTEXT
  5
18F
330
1F
100
AcDbEntity
  8
SCHRIFTFELD
100
AcDbMText
 10
55.1189517422
 20
28.1966034008
 30
0.0
 40
1.5875
 41
0.0
 71
     1
 72
     1
  1
Name
  7
SLDTEXTSTYLE1
 73
     1
 44
1.0
  0
MTEXT
  5
190
330
1F
100
AcDbEntity
  8
SCHRIFTFELD
100
AcDbMText
 10
40.4542595822
 20
28.1966034008
 30
0.0
 40
1.5875
 41
0.0
 71
     1
 72
     1
  1
Datum/Date
  7
SLDTEXTSTYLE1
 73
     1
 44
1.0
  0
MTEXT
  5
191
330
1F
100
AcDbEntity
  8
SCHRIFTFELD
100
AcDbMText
 10
63.6777034223
 20
28.1966034008
 30
0.0
 40
1.5875
 41
0.0
 71
     1
 72
     1
  1
Norm/Stand.
  7
SLDTEXTSTYLE1
 73
     1
 44
1.0
  0
MTEXT
  5
192
330
1F
100
AcDbEntity
  8
SCHRIFTFELD
100
AcDbMText
 10
63.4425183951
 20
33.1014594008
 30
0.0
 40
1.5875
 41
0.0
 71
     1
 72
     1
  1
Gepr./Tested
  7
SLDTEXTSTYLE1
 73
     1
 44
1.0
  0
MTEXT
  5
193
330
1F
100
AcDbEntity
  8
SCHRIFTFELD
100
AcDbMText
 10
63.4425183951
 20
38.2148104008
 30
0.0
 40
1.5875
 41
0.0
 71
     1
 72
     1
  1
Bearb/Drawn
  7
SLDTEXTSTYLE1
 73
     1
 44
1.0
  0
MTEXT
  5
194
330
1F
100
AcDbEntity
  8
SCHRIFTFELD
100
AcDbMText
 10
47.9682435071
 20
23.9022283308
 30
0.0
 40
1.5875
 41
0.0
 71
     1
 72
     1
  1
Maßstab/Scale
  7
SLDTEXTSTYLE1
 73
     1
 44
1.0
  0
MTEXT
  5
195
330
1F
100
AcDbEntity
  8
SCHRIFTFELD
100
AcDbMText
 10
64.0500801809
 20
53.5032665684
 30
0.0
 40
2.1166666667
 41
0.0
 71
     1
 72
     1
  1
Volumen [mm  ]
  7
SLDTEXTSTYLE1
 73
     1
 44
1.0
  0
MTEXT
  5
196
330
1F
100
AcDbEntity
  8
SCHRIFTFELD
100
AcDbMText
 10
116.9656969386
 20
53.5032665684
 30
0.0
 40
2.1166666667
 41
0.0
 71
     1
 72
     1
  1
Kanten/Edges
  7
SLDTEXTSTYLE1
 73
     1
 44
1.0
  0
MTEXT
  5
197
330
1F
100
AcDbEntity
  8
SCHRIFTFELD
100
AcDbMText
 10
76.542331314
 20
43.1897435314
 30
0.0
 40
2.1166666667
 41
0.0
 71
     1
 72
     1
  1
Datum/Date
  7
SLDTEXTSTYLE1
 73
     1
 44
1.0
  0
MTEXT
  5
198
330
1F
100
AcDbEntity
  8
SCHRIFTFELD
100
AcDbMText
 10
96.7370372377
 20
43.1897435314
 30
0.0
 40
2.1166666667
 41
0.0
 71
     1
 72
     1
  1
Name
  7
SLDTEXTSTYLE1
 73
     1
 44
1.0
  0
MTEXT
  5
199
330
1F
100
AcDbEntity
  8
SCHRIFTFELD
100
AcDbMText
 10
117.9716644764
 20
43.3879385434
 30
0.0
 40
2.1166666667
 41
0.0
 71
     1
 72
     1
  1
Werkstoff/Material
  7
SLDTEXTSTYLE1
 73
     1
 44
1.0
  0
MTEXT
  5
19B
330
1F
100
AcDbEntity
  8
SCHRIFTFELD
100
AcDbMText
 10
138.9486111219
 20
58.532087472
 30
0.0
 40
2.0
 41
0.0
 71
     1
 72
     1
  1
-
  7
SLDTEXTSTYLE3
 73
     1
 44
1.0
  0
MTEXT
  5
19D
330
1F
100
AcDbEntity
  8
SCHRIFTFELD
100
AcDbMText
 10
127.436111114
 20
58.532087472
 30
0.0
 40
2.0
 41
0.0
 71
     1
 72
     1
  1
-
  7
SLDTEXTSTYLE4
 73
     1
 44
1.0
  0
MTEXT
  5
19E
330
1F
100
AcDbEntity
  8
SCHRIFTFELD
100
AcDbMText
 10
108.186111114
 20
58.532087472
 30
0.0
 40
2.0
 41
0.0
 71
     1
 72
     1
  1
-
  7
SLDTEXTSTYLE4
 73
     1
 44
1.0
  0
MTEXT
  5
19F
330
1F
100
AcDbEntity
  8
SCHRIFTFELD
100
AcDbMText
 10
100.186111114
 20
58.532087472
 30
0.0
 40
2.0
 41
0.0
 71
     1
 72
     1
  1
-
  7
SLDTEXTSTYLE4
 73
     1
 44
1.0
  0
MTEXT
  5
1A0
330
1F
100
AcDbEntity
  8
SCHRIFTFELD
100
AcDbMText
 10
92.1986111219
 20
58.532087472
 30
0.0
 40
2.0
 41
0.0
 71
     1
 72
     1
  1
-
  7
SLDTEXTSTYLE3
 73
     1
 44
1.0
  0
MTEXT
  5
1A1
330
1F
100
AcDbEntity
  8
SCHRIFTFELD
100
AcDbMText
 10
84.1986111219
 20
58.532087472
 30
0.0
 40
2.0
 41
0.0
 71
     1
 72
     1
  1
-
  7
SLDTEXTSTYLE3
 73
     1
 44
1.0
  0
MTEXT
  5
1A2
330
1F
100
AcDbEntity
  8
SCHRIFTFELD
100
AcDbMText
 10
134.5992125496
 20
63.2914529695
 30
0.0
 40
2.1166666667
 41
0.0
 71
     1
 72
     1
  1
1000-2000
  7
SLDTEXTSTYLE4
 73
     1
 44
1.0
  0
MTEXT
  5
1A3
330
1F
100
AcDbEntity
  8
SCHRIFTFELD
100
AcDbMText
 10
123.8322067223
 20
63.3040261695
 30
0.0
 40
2.1166666667
 41
0.0
 71
     1
 72
     1
  1
400-1000
  7
SLDTEXTSTYLE3
 73
     1
 44
1.0
  0
MTEXT
  5
1A4
330
1F
100
AcDbEntity
  8
SCHRIFTFELD
100
AcDbMText
 10
113.681064792
 20
63.3040261695
 30
0.0
 40
2.1166666667
 41
0.0
 71
     1
 72
     1
  1
120-400
  7
SLDTEXTSTYLE4
 73
     1
 44
1.0
  0
MTEXT
  5
1A6
330
1F
100
AcDbEntity
  8
SCHRIFTFELD
100
AcDbMText
 10
105.6483796835
 20
63.3040261695
 30
0.0
 40
2.1166666667
 41
0.0
 71
     1
 72
     1
  1
30-120
  7
SLDTEXTSTYLE5
 73
     1
 44
1.0
  0
MTEXT
  5
1A7
330
1F
100
AcDbEntity
  8
SCHRIFTFELD
100
AcDbMText
 10
98.5538426898
 20
63.3040261695
 30
0.0
 40
2.1166666667
 41
0.0
 71
     1
 72
     1
  1
6-30
  7
SLDTEXTSTYLE4
 73
     1
 44
1.0
  0
MTEXT
  5
1A8
330
1F
100
AcDbEntity
  8
SCHRIFTFELD
100
AcDbMText
 10
91.0947685782
 20
63.3040261695
 30
0.0
 40
2.1166666667
 41
0.0
 71
     1
 72
     1
  1
3-6
  7
SLDTEXTSTYLE4
 73
     1
 44
1.0
  0
MTEXT
  5
1A9
330
1F
100
AcDbEntity
  8
SCHRIFTFELD
100
AcDbMText
 10
82.2833796293
 20
63.3040261695
 30
0.0
 40
2.1166666667
 41
0.0
 71
     1
 72
     1
  1
0,5-3
  7
SLDTEXTSTYLE4
 73
     1
 44
1.0
  0
MTEXT
  5
1AA
330
1F
100
AcDbEntity
  8
SCHRIFTFELD
100
AcDbMText
 10
171.1043863128
 20
34.4504284105
 30
0.0
 40
2.9104166667
 41
0.0
 71
     1
 72
     1
  1
A4
  7
SLDTEXTSTYLE4
 73
     1
 44
1.0
  0
MTEXT
  5
1AB
330
1F
100
AcDbEntity
  8
SCHRIFTFELD
100
AcDbMText
 10
200.4639772894
 20
11.3350962067
 30
0.0
 40
0.5
 41
0.0
 71
     1
 72
     1
  1
1
  7
SLDTEXTSTYLE0
 73
     1
 44
1.0
  0
MTEXT
  5
1AD
330
1F
100
AcDbEntity
  8
SCHRIFTFELD
100
AcDbMText
 10
52.0300051804
 20
18.3657613193
 30
0.0
 40
5.2916666667
 41
0.0
 71
     1
 72
     1
  1
1:1
  7
SLDTEXTSTYLE6
 73
     1
 44
1.0
  0
MTEXT
  5
1AE
330
1F
100
AcDbEntity
  8
SCHRIFTFELD
100
AcDbMText
 10
64.5204493201
 20
17.8754626746
 30
0.0
 40
4.2333333333
 41
0.0
 71
     1
 72
     1
  1
TV-Z 510-24 k
  7
SLDTEXTSTYLE2
 73
     1
 44
1.0
  0
MTEXT
  5
1AF
330
1F
100
AcDbEntity
  8
SCHRIFTFELD
100
AcDbMText
 10
96.7832290605
 20
38.6963798011
 30
0.0
 40
2.5
 41
0.0
 71
     1
 72
     1
  1
Schiller
  7
SLDTEXTSTYLE2
 73
     1
 44
1.0
  0
MTEXT
  5
1B0
330
1F
100
AcDbEntity
  8
SCHRIFTFELD
100
AcDbMText
 10
77.83508
 20
38.6963798011
 30
0.0
 40
2.5
 41
0.0
 71
     1
 72
     1
  1
11.11.11
  7
SLDTEXTSTYLE2
 73
     1
 44
1.0
  0
MTEXT
  5
1B1
330
1F
100
AcDbEntity
  8
SCHRIFTFELD
100
AcDbMText
 10
63.7636459577
 20
24.4344294734
 30
0.0
 40
2.1166666667
 41
0.0
 71
     1
 72
     1
  1
-
  7
SLDTEXTSTYLE1
 73
     1
 44
1.0
  0
MTEXT
  5
1B2
330
1F
100
AcDbEntity
  8
SCHRIFTFELD
100
AcDbMText
 10
54.4358360021
 20
11.1443422792
 30
0.0
 40
2.6458333333
 41
0.0
 71
     1
 72
     1
  1
-
  7
SLDTEXTSTYLE1
 73
     1
 44
1.0
  0
MTEXT
  5
1B3
330
1F
100
AcDbEntity
  8
SCHRIFTFELD
100
AcDbMText
 10
153.7123633941
 20
9.3446365955
 30
0.0
 40
3.175
 41
0.0
 71
     1
 72
     1
  1
00
  7
SLDTEXTSTYLE2
 73
     1
 44
1.0
  0
MTEXT
  5
1B4
330
1F
100
AcDbEntity
  8
SCHRIFTFELD
100
AcDbMText
 10
116.936111114
 20
58.532087472
 30
0.0
 40
2.0
 41
0.0
 71
     1
 72
     1
  1
-
  7
SLDTEXTSTYLE4
 73
     1
 44
1.0
  0
INSERT
  5
1BA
330
1F
100
AcDbEntity
  8
SCHRIFTFELD
100
AcDbBlockReference
  2
SW_NOTE_6
 10
64.3747773347
 20
63.2660550106
 30
0.0
  0
MTEXT
  5
1BB
330
1F
100
AcDbEntity
  8
PASSUNGEN
100
AcDbMText
 10
145.7161185961
 20
53.7429088766
 30
0.0
 40
2.38125
 41
0.0
 71
     1
 72
     1
  1
-
  7
SLDTEXTSTYLE2
 73
     1
 44
1.0
  0
MTEXT
  5
1BC
330
1F
100
AcDbEntity
  8
PASSUNGEN
100
AcDbMText
 10
145.6699834054
 20
58.6289209811
 30
0.0
 40
2.38125
 41
0.0
 71
     1
 72
     1
  1
-
  7
SLDTEXTSTYLE2
 73
     1
 44
1.0
  0
MTEXT
  5
1BD
330
1F
100
AcDbEntity
  8
PASSUNGEN
100
AcDbMText
 10
145.6699834054
 20
63.5310952777
 30
0.0
 40
2.38125
 41
0.0
 71
     1
 72
     1
  1
-
  7
SLDTEXTSTYLE2
 73
     1
 44
1.0
  0
MTEXT
  5
1BE
330
1F
100
AcDbEntity
  8
PASSUNGEN
100
AcDbMText
 10
145.7161185961
 20
68.7648963079
 30
0.0
 40
2.38125
 41
0.0
 71
     1
 72
     1
  1
-
  7
SLDTEXTSTYLE2
 73
     1
 44
1.0
  0
MTEXT
  5
1BF
330
1F
100
AcDbEntity
  8
PASSUNGEN
100
AcDbMText
 10
167.8107301842
 20
68.7648963079
 30
0.0
 40
2.38125
 41
0.0
 71
     1
 72
     1
  1
-
  7
SLDTEXTSTYLE2
 73
     1
 44
1.0
  0
MTEXT
  5
1C0
330
1F
100
AcDbEntity
  8
PASSUNGEN
100
AcDbMText
 10
167.8107301842
 20
63.3926897054
 30
0.0
 40
2.38125
 41
0.0
 71
     1
 72
     1
  1
-
  7
SLDTEXTSTYLE2
 73
     1
 44
1.0
  0
MTEXT
  5
1C1
330
1F
100
AcDbEntity
  8
PASSUNGEN
100
AcDbMText
 10
167.8107301842
 20
58.9057321257
 30
0.0
 40
2.38125
 41
0.0
 71
     1
 72
     1
  1
-
  7
SLDTEXTSTYLE2
 73
     1
 44
1.0
  0
MTEXT
  5
1C2
330
1F
100
AcDbEntity
  8
PASSUNGEN
100
AcDbMText
 10
167.8107301842
 20
53.7429088766
 30
0.0
 40
2.38125
 41
0.0
 71
     1
 72
     1
  1
-
  7
SLDTEXTSTYLE2
 73
     1
 44
1.0
  0
MTEXT
  5
1C3
330
1F
100
AcDbEntity
  8
PASSUNGEN
100
AcDbMText
 10
187.5081429024
 20
53.7429088766
 30
0.0
 40
2.38125
 41
0.0
 71
     1
 72
     1
  1
-
  7
SLDTEXTSTYLE2
 73
     1
 44
1.0
  0
MTEXT
  5
1C4
330
1F
100
AcDbEntity
  8
PASSUNGEN
100
AcDbMText
 10
187.5081429024
 20
58.9057321257
 30
0.0
 40
2.38125
 41
0.0
 71
     1
 72
     1
  1
-
  7
SLDTEXTSTYLE2
 73
     1
 44
1.0
  0
MTEXT
  5
1C5
330
1F
100
AcDbEntity
  8
PASSUNGEN
100
AcDbMText
 10
187.5081429024
 20
63.3926897054
 30
0.0
 40
2.38125
 41
0.0
 71
     1
 72
     1
  1
-
  7
SLDTEXTSTYLE2
 73
     1
 44
1.0
  0
MTEXT
  5
1C6
330
1F
100
AcDbEntity
  8
PASSUNGEN
100
AcDbMText
 10
187.399438231
 20
68.3035444003
 30
0.0
 40
2.38125
 41
0.0
 71
     1
 72
     1
  1
-
  7
SLDTEXTSTYLE2
 73
     1
 44
1.0
  0
MTEXT
  5
1C7
330
1F
100
AcDbEntity
  8
PASSUNGEN
100
AcDbMText
 10
187.399438231
 20
73.7474969099
 30
0.0
 40
2.38125
 41
0.0
 71
     1
 72
     1
  1
-
  7
SLDTEXTSTYLE2
 73
     1
 44
1.0
  0
MTEXT
  5
1C8
330
1F
100
AcDbEntity
  8
PASSUNGEN
100
AcDbMText
 10
167.8107301842
 20
73.7474969099
 30
0.0
 40
2.38125
 41
0.0
 71
     1
 72
     1
  1
-
  7
SLDTEXTSTYLE2
 73
     1
 44
1.0
  0
MTEXT
  5
1C9
330
1F
100
AcDbEntity
  8
PASSUNGEN
100
AcDbMText
 10
145.7161185961
 20
73.7474969099
 30
0.0
 40
2.38125
 41
0.0
 71
     1
 72
     1
  1
-
  7
SLDTEXTSTYLE2
 73
     1
 44
1.0
  0
MTEXT
  5
1CA
330
1F
100
AcDbEntity
  8
SCHRIFTFELD
100
AcDbMText
 10
77.83508
 20
33.9948862744
 30
0.0
 40
2.5
 41
0.0
 71
     1
 72
     1
  1
-
  7
SLDTEXTSTYLE2
 73
     1
 44
1.0
  0
MTEXT
  5
1CB
330
1F
100
AcDbEntity
  8
SCHRIFTFELD
100
AcDbMText
 10
96.7563714054
 20
33.9948862744
 30
0.0
 40
2.5
 41
0.0
 71
     1
 72
     1
  1
-
  7
SLDTEXTSTYLE2
 73
     1
 44
1.0
  0
MTEXT
  5
1CC
330
1F
100
AcDbEntity
  8
SCHRIFTFELD
100
AcDbMText
 10
198.8202133375
 20
17.3685967689
 30
0.0
 40
2.1166666667
 41
0.0
 71
     1
 72
     1
  1
1
  7
SLDTEXTSTYLE1
 73
     1
 44
1.0
  0
MTEXT
  5
1CD
330
1F
100
AcDbEntity
  8
SCHRIFTFELD
100
AcDbMText
 10
195.507322268
 20
11.2753482002
 30
0.0
 40
0.5
 41
0.0
 71
     1
 72
     1
  1
1
  7
SLDTEXTSTYLE0
 73
     1
 44
1.0
  0
LINE
  5
1CE
330
1F
100
AcDbEntity
  8
0
  6
Continuous
 62
     7
370
    30
100
AcDbLine
 10
70.2173957279
 20
175.6147146246
 30
0.0
 11
71.6607715612
 21
175.6147146246
 31
0.0
  0
LINE
  5
1CF
330
1F
100
AcDbEntity
  8
0
  6
Continuous
 62
     7
370
    30
100
AcDbLine
 10
71.6607715612
 20
175.6147146246
 30
0.0
 11
72.3824590122
 21
176.8647152952
 31
0.0
  0
LINE
  5
1D0
330
1F
100
AcDbEntity
  8
0
  6
Continuous
 62
     7
370
    30
100
AcDbLine
 10
72.3824590122
 20
176.8647152952
 30
0.0
 11
71.6607715612
 21
178.1147159657
 31
0.0
  0
LINE
  5
1D1
330
1F
100
AcDbEntity
  8
0
  6
Continuous
 62
     7
370
    30
100
AcDbLine
 10
71.6607715612
 20
178.1147159657
 30
0.0
 11
70.2173957279
 21
178.1147159657
 31
0.0
  0
LINE
  5
1D2
330
1F
100
AcDbEntity
  8
0
  6
Continuous
 62
     7
370
    30
100
AcDbLine
 10
70.2173957279
 20
178.1147159657
 30
0.0
 11
69.4957078112
 21
176.8647152952
 31
0.0
  0
LINE
  5
1D3
330
1F
100
AcDbEntity
  8
0
  6
Continuous
 62
     7
370
    30
100
AcDbLine
 10
69.4957078112
 20
176.8647152952
 30
0.0
 11
70.2173957279
 21
175.6147146246
 31
0.0
  0
CIRCLE
  5
1D4
330
1F
100
AcDbEntity
  8
0
  6
Continuous
 62
     7
370
    30
100
AcDbCircle
 10
70.9390835663
 20
176.8647154144
 30
0.0
 40
3.765000000000015
  0
LINE
  5
1D5
330
1F
100
AcDbEntity
  8
0
  6
Continuous
 62
     7
370
    30
100
AcDbLine
 10
70.2173957279
 20
131.614714863
 30
0.0
 11
71.6607715612
 21
131.614714863
 31
0.0
  0
LINE
  5
1D6
330
1F
100
AcDbEntity
  8
0
  6
Continuous
 62
     7
370
    30
100
AcDbLine
 10
71.6607715612
 20
131.614714863
 30
0.0
 11
72.3824590122
 21
132.8647155336
 31
0.0
  0
LINE
  5
1D7
330
1F
100
AcDbEntity
  8
0
  6
Continuous
 62
     7
370
    30
100
AcDbLine
 10
72.3824590122
 20
132.8647155336
 30
0.0
 11
71.6607715612
 21
134.1147162041
 31
0.0
  0
LINE
  5
1D8
330
1F
100
AcDbEntity
  8
0
  6
Continuous
 62
     7
370
    30
100
AcDbLine
 10
71.6607715612
 20
134.1147162041
 30
0.0
 11
70.2173957279
 21
134.1147162041
 31
0.0
  0
LINE
  5
1D9
330
1F
100
AcDbEntity
  8
0
  6
Continuous
 62
     7
370
    30
100
AcDbLine
 10
70.2173957279
 20
134.1147162041
 30
0.0
 11
69.4957078112
 21
132.8647155336
 31
0.0
  0
LINE
  5
1DA
330
1F
100
AcDbEntity
  8
0
  6
Continuous
 62
     7
370
    30
100
AcDbLine
 10
69.4957078112
 20
132.8647155336
 30
0.0
 11
70.2173957279
 21
131.614714863
 31
0.0
  0
CIRCLE
  5
1DB
330
1F
100
AcDbEntity
  8
0
  6
Continuous
 62
     7
370
    30
100
AcDbCircle
 10
70.9390835663
 20
132.8647154144
 30
0.0
 40
3.764999999999986
  0
ARC
  5
1DC
330
1F
100
AcDbEntity
  8
0
  6
Continuous
 62
     7
370
    30
100
AcDbCircle
 10
74.5390835663
 20
168.5647154144
 30
0.0
 40
0.5000000000000142
100
AcDbArc
 50
270.0
 51
0.0
  0
LINE
  5
1DD
330
1F
100
AcDbEntity
  8
0
  6
Continuous
 62
     7
370
    30
100
AcDbLine
 10
74.5390835827
 20
168.0647153429
 30
0.0
 11
63.6390835889
 21
168.0647153429
 31
0.0
  0
LINE
  5
1DE
330
1F
100
AcDbEntity
  8
0
  6
Continuous
 62
     7
370
    30
100
AcDbLine
 10
63.6390835889
 20
168.0647153429
 30
0.0
 11
63.6390835889
 21
141.6647154859
 31
0.0
  0
LINE
  5
1DF
330
1F
100
AcDbEntity
  8
0
  6
Continuous
 62
     7
370
    30
100
AcDbLine
 10
63.6390835889
 20
141.6647154859
 30
0.0
 11
74.5390835827
 21
141.6647154859
 31
0.0
  0
ARC
  5
1E0
330
1F
100
AcDbEntity
  8
0
  6
Continuous
 62
     7
370
    30
100
AcDbCircle
 10
74.5390835663
 20
141.1647154144
 30
0.0
 40
0.5000000000000142
100
AcDbArc
 50
0.0
 51
90.0
  0
LINE
  5
1E1
330
1F
100
AcDbEntity
  8
0
  6
Continuous
 62
     7
370
    30
100
AcDbLine
 10
75.0390836647
 20
141.164715404
 30
0.0
 11
75.0390836647
 21
138.564715164
 31
0.0
  0
LINE
  5
1E2
330
1F
100
AcDbEntity
  8
0
  6
Continuous
 62
     7
370
    30
100
AcDbLine
 10
75.0390836647
 20
138.564715164
 30
0.0
 11
78.2390838167
 21
138.564715164
 31
0.0
  0
LINE
  5
1E3
330
1F
100
AcDbEntity
  8
0
  6
Continuous
 62
     7
370
    30
100
AcDbLine
 10
78.2390838167
 20
138.564715164
 30
0.0
 11
78.2390838167
 21
171.1647156647
 31
0.0
  0
LINE
  5
1E4
330
1F
100
AcDbEntity
  8
0
  6
Continuous
 62
     7
370
    30
100
AcDbLine
 10
78.2390838167
 20
171.1647156647
 30
0.0
 11
75.0390836647
 21
171.1647156647
 31
0.0
  0
LINE
  5
1E5
330
1F
100
AcDbEntity
  8
0
  6
Continuous
 62
     7
370
    30
100
AcDbLine
 10
75.0390836647
 20
171.1647156647
 30
0.0
 11
75.0390836647
 21
168.5647154248
 31
0.0
  0
LINE
  5
1E6
330
1F
100
AcDbEntity
  8
0
  6
Continuous
 62
     7
370
    30
100
AcDbLine
 10
82.9390832832
 20
209.8647151164
 30
0.0
 11
58.9390835403
 21
209.8647151164
 31
0.0
  0
LINE
  5
1E7
330
1F
100
AcDbEntity
  8
0
  6
Continuous
 62
     7
370
    30
100
AcDbLine
 10
82.9390832832
 20
99.8647157124
 30
0.0
 11
82.9390832832
 21
209.8647151164
 31
0.0
  0
LINE
  5
1E8
330
1F
100
AcDbEntity
  8
0
  6
Continuous
 62
     7
370
    30
100
AcDbLine
 10
58.9390835403
 20
99.8647157124
 30
0.0
 11
82.9390832832
 21
99.8647157124
 31
0.0
  0
LINE
  5
1E9
330
1F
100
AcDbEntity
  8
0
  6
Continuous
 62
     7
370
    30
100
AcDbLine
 10
58.9390835403
 20
209.8647151164
 30
0.0
 11
58.9390835403
 21
99.8647157124
 31
0.0
  0
CIRCLE
  5
1EA
330
1F
100
AcDbEntity
  8
0
  6
Continuous
 62
     7
370
    30
100
AcDbCircle
 10
70.9390835663
 20
202.8647154144
 30
0.0
 40
5.199999999999989
  0
CIRCLE
  5
1EB
330
1F
100
AcDbEntity
  8
0
  6
Continuous
 62
     7
370
    30
100
AcDbCircle
 10
70.9390835663
 20
176.8647154144
 30
0.0
 40
4.299999999999983
  0
CIRCLE
  5
1EC
330
1F
100
AcDbEntity
  8
0
  6
Continuous
 62
     7
370
    30
100
AcDbCircle
 10
70.9390835663
 20
106.8647154144
 30
0.0
 40
5.199999999999989
  0
CIRCLE
  5
1ED
330
1F
100
AcDbEntity
  8
0
  6
Continuous
 62
     7
370
    30
100
AcDbCircle
 10
70.9390835663
 20
132.8647154144
 30
0.0
 40
4.30000000000004
  0
CIRCLE
  5
1EE
330
1F
100
AcDbEntity
  8
0
  6
Continuous
 62
     7
370
    30
100
AcDbCircle
 10
70.9390835663
 20
202.8647154144
 30
0.0
 40
2.75
  0
CIRCLE
  5
1EF
330
1F
100
AcDbEntity
  8
0
  6
Continuous
 62
     7
370
    30
100
AcDbCircle
 10
70.9390835663
 20
106.8647154144
 30
0.0
 40
2.75
  0
LINE
  5
1F0
330
1F
100
AcDbEntity
  8
0
  6
Continuous
 62
     7
370
    30
100
AcDbLine
 10
78.1407436034
 20
162.3647152467
 30
0.0
 11
78.1407436034
 21
164.3647151089
 31
0.0
  0
LINE
  5
1F1
330
1F
100
AcDbEntity
  8
0
  6
Continuous
 62
     7
370
    30
100
AcDbLine
 10
78.1407436034
 20
164.3647151089
 30
0.0
 11
78.2390838167
 21
164.3647151089
 31
0.0
  0
LINE
  5
1F2
330
1F
100
AcDbEntity
  8
0
  6
Continuous
 62
     7
370
    30
100
AcDbLine
 10
78.1407436034
 20
162.3647152467
 30
0.0
 11
78.2390838167
 21
162.3647152467
 31
0.0
  0
LINE
  5
1F3
330
1F
100
AcDbEntity
  8
0
  6
Continuous
 62
     7
370
    30
100
AcDbLine
 10
78.1407436034
 20
147.364715582
 30
0.0
 11
78.2390838167
 21
147.364715582
 31
0.0
  0
LINE
  5
1F4
330
1F
100
AcDbEntity
  8
0
  6
Continuous
 62
     7
370
    30
100
AcDbLine
 10
78.1407436034
 20
145.3647157199
 30
0.0
 11
78.2390838167
 21
145.3647157199
 31
0.0
  0
LINE
  5
1F5
330
1F
100
AcDbEntity
  8
0
  6
Continuous
 62
     7
370
    30
100
AcDbLine
 10
78.1407436034
 20
145.3647157199
 30
0.0
 11
78.1407436034
 21
147.364715582
 31
0.0
  0
LINE
  5
1F6
330
1F
100
AcDbEntity
  8
0
  6
Continuous
 62
     7
370
    30
100
AcDbLine
 10
75.9399128756
 20
170.8647161743
 30
0.0
 11
76.8983369371
 21
170.8647161743
 31
0.0
  0
ELLIPSE
  5
1F7
330
1F
100
AcDbEntity
  8
0
  6
Continuous
 62
     7
370
    30
100
AcDbEllipse
 10
76.8983366128
 20
170.3647154144
 30
0.0
 11
0.5003047721494056
 21
0.0
 31
0.0
210
0.0
220
0.0
230
1.0
 40
0.999390827
 41
1.53588974175501
 42
1.570796326794897
  0
ELLIPSE
  5
1F8
330
1F
100
AcDbEntity
  8
0
  6
Continuous
 62
     7
370
    30
100
AcDbEllipse
 10
76.9157969975
 20
170.3647154144
 30
0.0
 11
0.3596699001693224
 21
-0.3596699001693082
 31
0.0
210
0.0
220
0.0
230
1.0
 40
0.9656887748
 41
0.8028514559173386
 42
2.338741197672416
  0
ARC
  5
1F9
330
1F
100
AcDbEntity
  8
0
  6
Continuous
 62
     7
370
    30
100
AcDbCircle
 10
77.4399133121
 20
170.3647154144
 30
0.0
 40
0.5
100
AcDbArc
 50
0.0
 51
90.0
  0
LINE
  5
1FA
330
1F
100
AcDbEntity
  8
0
  6
Continuous
 62
     7
370
    30
100
AcDbLine
 10
76.8983369371
 20
170.8647161743
 30
0.0
 11
77.4399131214
 21
170.8647161743
 31
0.0
  0
LINE
  5
1FB
330
1F
100
AcDbEntity
  8
0
  6
Continuous
 62
     7
370
    30
100
AcDbLine
 10
75.4399137249
 20
168.3318046874
 30
0.0
 11
75.4399137249
 21
170.3647151611
 31
0.0
  0
ARC
  5
1FC
330
1F
100
AcDbEntity
  8
0
  6
Continuous
 62
     7
370
    30
100
AcDbCircle
 10
75.9399133121
 20
170.3647154144
 30
0.0
 40
0.5
100
AcDbArc
 50
90.0
 51
180.0
  0
LINE
  5
1FD
330
1F
100
AcDbEntity
  8
0
  6
Continuous
 62
     7
370
    30
100
AcDbLine
 10
75.4399137249
 20
139.3647156677
 30
0.0
 11
75.4399137249
 21
141.3976261414
 31
0.0
  0
LINE
  5
1FE
330
1F
100
AcDbEntity
  8
0
  6
Continuous
 62
     7
370
    30
100
AcDbLine
 10
76.9157973727
 20
138.8647146544
 30
0.0
 11
75.9399128756
 21
138.8647146544
 31
0.0
  0
ARC
  5
1FF
330
1F
100
AcDbEntity
  8
0
  6
Continuous
 62
     7
370
    30
100
AcDbCircle
 10
75.9399133121
 20
139.3647154144
 30
0.0
 40
0.5
100
AcDbArc
 50
180.0
 51
270.0
  0
LINE
  5
200
330
1F
100
AcDbEntity
  8
0
  6
Continuous
 62
     7
370
    30
100
AcDbLine
 10
64.9399134008
 20
167.8647156826
 30
0.0
 11
74.939913643
 21
167.8647156826
 31
0.0
  0
LINE
  5
201
330
1F
100
AcDbEntity
  8
0
  6
Continuous
 62
     7
370
    30
100
AcDbLine
 10
74.939913643
 20
141.8647151462
 30
0.0
 11
64.9399134008
 21
141.8647151462
 31
0.0
  0
LINE
  5
202
330
1F
100
AcDbEntity
  8
0
  6
Continuous
 62
     7
370
    30
100
AcDbLine
 10
77.9399132034
 20
139.3647156677
 30
0.0
 11
77.9399132034
 21
170.3647151611
 31
0.0
  0
ARC
  5
203
330
1F
100
AcDbEntity
  8
0
  6
Continuous
 62
     7
370
    30
100
AcDbCircle
 10
77.4399133121
 20
139.3647154144
 30
0.0
 40
0.5
100
AcDbArc
 50
270.0
 51
360.0
  0
LINE
  5
204
330
1F
100
AcDbEntity
  8
0
  6
Continuous
 62
     7
370
    30
100
AcDbLine
 10
77.4399131214
 20
138.8647146544
 30
0.0
 11
76.9157973727
 21
138.8647146544
 31
0.0
  0
ARC
  5
205
330
1F
100
AcDbEntity
  8
0
  6
Continuous
 62
     7
370
    30
100
AcDbCircle
 10
74.9399133121
 20
168.3647154144
 30
0.0
 40
0.5
100
AcDbArc
 50
270.0
 51
0.0
  0
ARC
  5
206
330
1F
100
AcDbEntity
  8
0
  6
Continuous
 62
     7
370
    30
100
AcDbCircle
 10
74.9399133121
 20
141.3647154144
 30
0.0
 40
0.5
100
AcDbArc
 50
0.0
 51
90.0
  0
LINE
  5
207
330
1F
100
AcDbEntity
  8
0
  6
Continuous
 62
     7
370
    30
100
AcDbLine
 10
63.9399132369
 20
142.8647153101
 30
0.0
 11
63.9399132369
 21
166.8647155187
 31
0.0
  0
SPLINE
  5
208
330
1F
100
AcDbEntity
  8
0
  6
Continuous
 62
     7
370
    30
100
AcDbSpline
210
0.0
220
0.0
230
1.0
 70
     8
 71
     3
 72
    13
 73
     9
 74
     0
 42
0.00000001
 43
0.00000001
 40
0.0
 40
0.0
 40
0.0
 40
0.0
 40
0.1442535475137846
 40
0.2974159658230578
 40
0.4751821352899426
 40
0.6920472673333423
 40
0.9379785012274253
 40
1.0
 40
1.0
 40
1.0
 40
1.0
 10
63.93991323692077
 20
166.864715518696
 30
0.0
 10
63.94544637729041
 20
166.9441993505183
 30
0.0
 10
63.95685437602202
 20
167.1080758098233
 30
0.0
 10
64.05409332275771
 20
167.3528657557552
 30
0.0
 10
64.22857865363765
 20
167.5910806856227
 30
0.0
 10
64.50118224728972
 20
167.7859652540678
 30
0.0
 10
64.75813772053716
 20
167.8595264077611
 30
0.0
 10
64.90944100796303
 20
167.8638457663383
 30
0.0
 10
64.93991340083355
 20
167.8647156826088
 30
0.0
  0
SPLINE
  5
209
330
1F
100
AcDbEntity
  8
0
  6
Continuous
 62
     7
370
    30
100
AcDbSpline
210
0.0
220
0.0
230
1.0
 70
     8
 71
     3
 72
    12
 73
     8
 74
     0
 42
0.00000001
 43
0.00000001
 40
0.0
 40
0.0
 40
0.0
 40
0.0
 40
0.2787255474156334
 40
0.5127444617462655
 40
0.6962918477028766
 40
0.8459549566578298
 40
1.0
 40
1.0
 40
1.0
 40
1.0
 10
64.93991340083355
 20
141.864715146167
 30
0.0
 10
64.80190537834736
 20
141.8809555118372
 30
0.0
 10
64.54802535241336
 20
141.9108313435697
 30
0.0
 10
64.24516645366602
 20
142.1210724807309
 30
0.0
 10
64.06134995861711
 20
142.3631834319563
 30
0.0
 10
63.95858188778494
 20
142.6126010223418
 30
0.0
 10
63.94619569034525
 20
142.7798727426182
 30
0.0
 10
63.93991323692077
 20
142.8647153100797
 30
0.0
  0
LINE
  5
20A
330
1F
100
AcDbEntity
  8
0
  6
Continuous
 62
     7
370
    30
100
AcDbLine
 10
77.9399132034
 20
171.0647158346
 30
0.0
 11
77.9399132034
 21
170.3647151611
 31
0.0
  0
LINE
  5
20B
330
1F
100
AcDbEntity
  8
0
  6
Continuous
 62
     7
370
    30
100
AcDbLine
 10
75.4399137249
 20
170.3647151611
 30
0.0
 11
75.4399137249
 21
171.0647158346
 31
0.0
  0
LINE
  5
20C
330
1F
100
AcDbEntity
  8
0
  6
Continuous
 62
     7
370
    30
100
AcDbLine
 10
77.9399132034
 20
139.3647156677
 30
0.0
 11
77.9399132034
 21
138.6647149942
 31
0.0
  0
LINE
  5
20D
330
1F
100
AcDbEntity
  8
0
  6
Continuous
 62
     7
370
    30
100
AcDbLine
 10
75.4399137249
 20
138.6647149942
 30
0.0
 11
75.4399137249
 21
139.3647156677
 31
0.0
  0
LINE
  5
20E
330
1F
100
AcDbEntity
  8
0
  6
Continuous
 62
     7
370
    30
100
AcDbLine
 10
77.9399132034
 20
171.1647156647
 30
0.0
 11
77.9399132034
 21
171.0647158346
 31
0.0
  0
LINE
  5
20F
330
1F
100
AcDbEntity
  8
0
  6
Continuous
 62
     7
370
    30
100
AcDbLine
 10
75.4399137249
 20
171.0647158346
 30
0.0
 11
75.4399137249
 21
171.1647156647
 31
0.0
  0
LINE
  5
210
330
1F
100
AcDbEntity
  8
0
  6
Continuous
 62
     7
370
    30
100
AcDbLine
 10
77.9399132034
 20
138.6647149942
 30
0.0
 11
77.9399132034
 21
138.564715164
 31
0.0
  0
LINE
  5
211
330
1F
100
AcDbEntity
  8
0
  6
Continuous
 62
     7
370
    30
100
AcDbLine
 10
75.4399137249
 20
138.564715164
 30
0.0
 11
75.4399137249
 21
138.6647149942
 31
0.0
  0
ARC
  5
212
330
1F
100
AcDbEntity
  8
0
  6
Continuous
 62
     7
370
    30
100
AcDbCircle
 10
72.4399133121
 20
141.3647154144
 30
0.0
 40
0.5
100
AcDbArc
 50
36.8698976458
 51
90.0
  0
LINE
  5
213
330
1F
100
AcDbEntity
  8
0
  6
Continuous
 62
     7
370
    30
100
AcDbLine
 10
63.7390835354
 20
164.3647151089
 30
0.0
 11
63.6390835889
 21
164.3647151089
 31
0.0
  0
LINE
  5
214
330
1F
100
AcDbEntity
  8
0
  6
Continuous
 62
     7
370
    30
100
AcDbLine
 10
63.7390835354
 20
162.3647152467
 30
0.0
 11
63.6390835889
 21
162.3647152467
 31
0.0
  0
LINE
  5
215
330
1F
100
AcDbEntity
  8
0
  6
Continuous
 62
     7
370
    30
100
AcDbLine
 10
63.7390835354
 20
162.3647152467
 30
0.0
 11
63.7390835354
 21
164.3647151089
 31
0.0
  0
LINE
  5
216
330
1F
100
AcDbEntity
  8
0
  6
Continuous
 62
     7
370
    30
100
AcDbLine
 10
63.7390835354
 20
147.364715582
 30
0.0
 11
63.6390835889
 21
147.364715582
 31
0.0
  0
LINE
  5
217
330
1F
100
AcDbEntity
  8
0
  6
Continuous
 62
     7
370
    30
100
AcDbLine
 10
63.7390835354
 20
145.3647157199
 30
0.0
 11
63.6390835889
 21
145.3647157199
 31
0.0
  0
LINE
  5
218
330
1F
100
AcDbEntity
  8
0
  6
Continuous
 62
     7
370
    30
100
AcDbLine
 10
63.7390835354
 20
145.3647157199
 30
0.0
 11
63.7390835354
 21
147.364715582
 31
0.0
  0
LINE
  5
219
330
1F
100
AcDbEntity
  8
0
  6
Continuous
 62
     7
370
    30
100
AcDbLine
 10
69.7261412306
 20
167.9647155127
 30
0.0
 11
69.7261412306
 21
168.0647153429
 31
0.0
  0
LINE
  5
21A
330
1F
100
AcDbEntity
  8
0
  6
Continuous
 62
     7
370
    30
100
AcDbLine
 10
69.7261412306
 20
167.9647155127
 30
0.0
 11
67.7261413684
 21
167.9647155127
 31
0.0
  0
LINE
  5
21B
330
1F
100
AcDbEntity
  8
0
  6
Continuous
 62
     7
370
    30
100
AcDbLine
 10
67.7261413684
 20
167.9647155127
 30
0.0
 11
67.7261413684
 21
168.0647153429
 31
0.0
  0
LINE
  5
21C
330
1F
100
AcDbEntity
  8
0
  6
Continuous
 62
     7
370
    30
100
AcDbLine
 10
67.7261413684
 20
141.764715316
 30
0.0
 11
67.7261413684
 21
141.6647154859
 31
0.0
  0
LINE
  5
21D
330
1F
100
AcDbEntity
  8
0
  6
Continuous
 62
     7
370
    30
100
AcDbLine
 10
67.7261413684
 20
141.764715316
 30
0.0
 11
69.7261412306
 21
141.764715316
 31
0.0
  0
LINE
  5
21E
330
1F
100
AcDbEntity
  8
0
  6
Continuous
 62
     7
370
    30
100
AcDbLine
 10
69.7261412306
 20
141.764715316
 30
0.0
 11
69.7261412306
 21
141.6647154859
 31
0.0
  0
LINE
  5
21F
330
1F
100
AcDbEntity
  8
0
  6
Continuous
 62
     7
370
    30
100
AcDbLine
 10
63.6390835889
 20
158.8647156044
 30
0.0
 11
63.9333211029
 21
158.8647156044
 31
0.0
  0
LINE
  5
220
330
1F
100
AcDbEntity
  8
0
  6
Continuous
 62
     7
370
    30
100
AcDbLine
 10
63.9382564141
 20
150.8647152244
 30
0.0
 11
63.6390835889
 21
150.8647152244
 31
0.0
  0
ARC
  5
221
330
1F
100
AcDbEntity
  8
0
  6
Continuous
 62
     7
370
    30
100
AcDbCircle
 10
77.7407430578
 20
150.5647154144
 30
0.0
 40
0.500000000000005
100
AcDbArc
 50
4.6693919229
 51
66.52552343
  0
ARC
  5
222
330
1F
100
AcDbEntity
  8
0
  6
Continuous
 62
     7
370
    30
100
AcDbCircle
 10
77.7407430578
 20
159.1647154144
 30
0.0
 40
0.5000000000000107
100
AcDbArc
 50
293.47447657
 51
355.3306080771
  0
LINE
  5
223
330
1F
100
AcDbEntity
  8
0
  6
Continuous
 62
     8
370
     0
100
AcDbLine
 10
75.2997403642
 20
142.3647152281
 30
0.0
 11
75.9399128756
 21
142.3647152281
 31
0.0
  0
ELLIPSE
  5
224
330
1F
100
AcDbEntity
  8
0
  6
Continuous
 62
     8
370
     0
100
AcDbEllipse
 10
314.3562189155
 20
154.8647154144
 30
0.0
 11
-239.7091988222393
 21
2.842170943040401E-14
 31
-4.973799150320701E-14
210
-2.074930446874136E-16
220
1.467197389475132E-16
230
1.0
 40
0.7071067812
 41
6.209371985255444
 42
6.356998629103767
  0
LINE
  5
225
330
1F
100
AcDbEntity
  8
0
  6
Continuous
 62
     8
370
     0
100
AcDbLine
 10
75.9399128756
 20
167.3647156007
 30
0.0
 11
75.2997403642
 21
167.3647156007
 31
0.0
  0
LINE
  5
226
330
1F
100
AcDbEntity
  8
0
  6
Continuous
 62
     8
370
     0
100
AcDbLine
 10
75.9399128756
 20
170.8647161743
 30
0.0
 11
75.9399128756
 21
167.3647156007
 31
0.0
  0
LINE
  5
227
330
1F
100
AcDbEntity
  8
0
  6
Continuous
 62
     8
370
     0
100
AcDbLine
 10
76.9157973727
 20
139.3647156677
 30
0.0
 11
76.9157973727
 21
170.8644107005
 31
0.0
  0
LINE
  5
228
330
1F
100
AcDbEntity
  8
0
  6
Continuous
 62
     8
370
     0
100
AcDbLine
 10
75.9399128756
 20
139.3647156677
 30
0.0
 11
76.9157973727
 21
139.3647156677
 31
0.0
  0
LINE
  5
229
330
1F
100
AcDbEntity
  8
0
  6
Continuous
 62
     8
370
     0
100
AcDbLine
 10
75.9399128756
 20
142.3647152281
 30
0.0
 11
75.9399128756
 21
139.3647156677
 31
0.0
  0
LINE
  5
22A
330
1F
100
AcDbEntity
  8
0
  6
Continuous
 62
     8
370
     0
100
AcDbLine
 10
77.4154919809
 20
170.3647151611
 30
0.0
 11
77.4154919809
 21
139.3647156677
 31
0.0
  0
LINE
  5
22B
330
1F
100
AcDbEntity
  8
0
  6
Continuous
 62
     8
370
     0
100
AcDbLine
 10
77.4154919809
 20
139.3647156677
 30
0.0
 11
76.9157973727
 21
139.3647156677
 31
0.0
  0
LINE
  5
22C
330
1F
100
AcDbEntity
  8
0
  6
Continuous
 62
     8
370
     0
100
AcDbLine
 10
77.9399132034
 20
170.3647151611
 30
0.0
 11
77.4154919809
 21
170.3647151611
 31
0.0
  0
LINE
  5
22D
330
1F
100
AcDbEntity
  8
0
  6
Continuous
 62
     8
370
     0
100
AcDbLine
 10
75.4399137249
 20
168.3318046874
 30
0.0
 11
75.4646142623
 21
168.26319881
 31
0.0
  0
LWPOLYLINE
  5
22E
330
1F
100
AcDbEntity
  8
0
  6
Continuous
 62
     8
370
     0
100
AcDbPolyline
 90
        4
 70
   128
 43
0.0
 10
75.6198266199
 20
168.004888112
 10
75.7165295681
 20
167.8114831469
 10
75.8251581019
 20
167.5942260793
 10
75.9399128756
 20
167.3647156007
  0
SPLINE
  5
22F
330
1F
100
AcDbEntity
  8
0
  6
Continuous
 62
     8
370
     0
100
AcDbSpline
210
0.0
220
0.0
230
1.0
 70
     8
 71
     3
 72
     9
 73
     5
 74
     0
 42
0.00000001
 43
0.00000001
 40
0.0
 40
0.0
 40
0.0
 40
0.0
 40
0.4473573250102568
 40
1.0
 40
1.0
 40
1.0
 40
1.0
 10
75.46461426225775
 20
168.2631988099643
 30
0.0
 10
75.48492930831932
 20
168.234119166918
 30
0.0
 10
75.53034053761145
 20
168.1691159996051
 30
0.0
 10
75.58797522956475
 20
168.0633428618066
 30
0.0
 10
75.61982661989802
 20
168.0048881119916
 30
0.0
  0
ARC
  5
230
330
1F
100
AcDbEntity
  8
0
  6
Continuous
 62
     8
370
     0
100
AcDbCircle
 10
74.8155192393
 20
168.489109237
 30
0.0
 40
0.9388186515104298
100
AcDbArc
 50
301.0494089855
 51
328.9505910145
  0
LWPOLYLINE
  5
231
330
1F
100
AcDbEntity
  8
0
  6
Continuous
 62
     8
370
     0
100
AcDbPolyline
 90
        4
 70
   128
 43
0.0
 10
75.9399128756
 20
167.3647156007
 10
75.7104033282
 20
167.4794703743
 10
75.4931453293
 20
167.5880989081
 10
75.2997403642
 20
167.6848018563
  0
LWPOLYLINE
  5
232
330
1F
100
AcDbEntity
  8
0
  6
Continuous
 62
     8
370
     0
100
AcDbPolyline
 90
        9
 70
   128
 43
0.0
 10
75.2997403642
 20
142.3647152281
 10
75.2508291653
 20
142.3596004045
 10
75.2023929408
 20
142.3545349411
 10
75.1549001461
 20
142.3495681978
 10
75.1088117859
 20
142.3447486034
 10
75.0645748949
 20
142.3401227242
 10
75.0226188129
 20
142.3357343322
 10
74.9833505279
 20
142.331628131
 10
74.9471500194
 20
142.3278423047
  0
ELLIPSE
  5
233
330
1F
100
AcDbEntity
  8
0
  6
Continuous
 62
     8
370
     0
100
AcDbEllipse
 10
314.3562189155
 20
154.8647154144
 30
0.0
 11
240.0627522128325
 21
0.0
 31
0.0
210
0.0
220
0.0
230
1.0
 40
0.7081481756
 41
3.067779331665632
 42
3.215405975513974
  0
LWPOLYLINE
  5
234
330
1F
100
AcDbEntity
  8
0
  6
Continuous
 62
     8
370
     0
100
AcDbPolyline
 90
        9
 70
   128
 43
0.0
 10
75.2997403642
 20
167.3647156007
 10
75.2508291653
 20
167.3698304242
 10
75.2023929408
 20
167.3748958877
 10
75.1549001461
 20
167.379862631
 10
75.1088117859
 20
167.3846822253
 10
75.0645748949
 20
167.3893081046
 10
75.0226188129
 20
167.3936964965
 10
74.9833505279
 20
167.3978026978
 10
74.9471500194
 20
167.401588524
  0
ARC
  5
235
330
1F
100
AcDbEntity
  8
0
  6
Continuous
 62
     8
370
     0
100
AcDbCircle
 10
75.4798572942
 20
167.4000328837
 30
0.0
 40
0.5327095462799278
100
AcDbArc
 50
129.0116689678
 51
179.8326822667
  0
SPLINE
  5
236
330
1F
100
AcDbEntity
  8
0
  6
Continuous
 62
     8
370
     0
100
AcDbSpline
210
0.0
220
0.0
230
1.0
 70
     8
 71
     3
 72
     9
 73
     5
 74
     0
 42
0.00000001
 43
0.00000001
 40
0.0
 40
0.0
 40
0.0
 40
0.0
 40
0.5128940407135478
 40
1.0
 40
1.0
 40
1.0
 40
1.0
 10
75.29974036422843
 20
167.684801856322
 30
0.0
 10
75.26699003579871
 20
167.7146236813543
 30
0.0
 10
75.2031360507063
 20
167.7727679034842
 30
0.0
 10
75.16372524493812
 20
167.8004658406946
 30
0.0
 10
75.14452800658816
 20
167.8139576709696
 30
0.0
  0
LINE
  5
237
330
1F
100
AcDbEntity
  8
0
  6
Continuous
 62
     8
370
     0
100
AcDbLine
 10
75.2997403642
 20
167.3647156007
 30
0.0
 11
75.2997403642
 21
167.6848018563
 31
0.0
  0
LWPOLYLINE
  5
238
330
1F
100
AcDbEntity
  8
0
  6
Continuous
 62
     8
370
     0
100
AcDbPolyline
 90
        4
 70
   128
 43
0.0
 10
75.2997403642
 20
142.0446289725
 10
75.4931453293
 20
142.1413319207
 10
75.7104033282
 20
142.2499604544
 10
75.9399128756
 20
142.3647152281
  0
LINE
  5
239
330
1F
100
AcDbEntity
  8
0
  6
Continuous
 62
     8
370
     0
100
AcDbLine
 10
75.2997403642
 20
142.3647152281
 30
0.0
 11
75.2997403642
 21
142.0446289725
 31
0.0
  0
LINE
  5
23A
330
1F
100
AcDbEntity
  8
0
  6
Continuous
 62
     8
370
     0
100
AcDbLine
 10
75.4646142623
 20
141.4662320188
 30
0.0
 11
75.4399137249
 21
141.3976261414
 31
0.0
  0
SPLINE
  5
23B
330
1F
100
AcDbEntity
  8
0
  6
Continuous
 62
     8
370
     0
100
AcDbSpline
210
0.0
220
0.0
230
1.0
 70
     8
 71
     3
 72
    11
 73
     7
 74
     0
 42
0.00000001
 43
0.00000001
 40
0.0
 40
0.0
 40
0.0
 40
0.0
 40
0.5438256062638348
 40
0.9248812635484185
 40
0.9639236965788336
 40
1.0
 40
1.0
 40
1.0
 40
1.0
 10
75.61982661989802
 20
141.7245427167842
 30
0.0
 10
75.58920819321364
 20
141.6679682346262
 30
0.0
 10
75.53713560076201
 20
141.5717523191928
 30
0.0
 10
75.48695767779249
 20
141.4983732746402
 30
0.0
 10
75.46874060251277
 20
141.4721210899572
 30
0.0
 10
75.46595301894357
 20
141.4681426788351
 30
0.0
 10
75.46461426225775
 20
141.4662320188114
 30
0.0
  0
LWPOLYLINE
  5
23C
330
1F
100
AcDbEntity
  8
0
  6
Continuous
 62
     8
370
     0
100
AcDbPolyline
 90
        4
 70
   128
 43
0.0
 10
75.9399128756
 20
142.3647152281
 10
75.8251581019
 20
142.1352047494
 10
75.7165295681
 20
141.9179476819
 10
75.6198266199
 20
141.7245427168
  0
LINE
  5
23D
330
1F
100
AcDbEntity
  8
0
  6
Continuous
 62
     8
370
     0
100
AcDbLine
 10
75.4399137249
 20
139.3647156677
 30
0.0
 11
75.9399128756
 21
139.3647156677
 31
0.0
  0
ARC
  5
23E
330
1F
100
AcDbEntity
  8
0
  6
Continuous
 62
     8
370
     0
100
AcDbCircle
 10
74.8155192393
 20
141.2403215918
 30
0.0
 40
0.9388186515104541
100
AcDbArc
 50
31.0494089855
 51
58.9505910145
  0
LINE
  5
23F
330
1F
100
AcDbEntity
  8
0
  6
Continuous
 62
     8
370
     0
100
AcDbLine
 10
76.9157973727
 20
138.8647146544
 30
0.0
 11
76.9157973727
 21
139.3647156677
 31
0.0
  0
ARC
  5
240
330
1F
100
AcDbEntity
  8
0
  6
Continuous
 62
     8
370
     0
100
AcDbCircle
 10
76.9156429822
 20
139.3645636524
 30
0.0
 40
0.4998490218424891
100
AcDbArc
 50
270.0176972007
 51
0.0174249298
  0
LINE
  5
241
330
1F
100
AcDbEntity
  8
0
  6
Continuous
 62
     8
370
     0
100
AcDbLine
 10
75.9399128756
 20
138.8647146544
 30
0.0
 11
75.9399128756
 21
139.3647156677
 31
0.0
  0
SPLINE
  5
242
330
1F
100
AcDbEntity
  8
0
  6
Continuous
 62
     8
370
     0
100
AcDbSpline
210
0.0
220
0.0
230
1.0
 70
     8
 71
     3
 72
    10
 73
     6
 74
     0
 42
0.00000001
 43
0.00000001
 40
0.0
 40
0.0
 40
0.0
 40
0.0
 40
0.0417791533994619
 40
0.4955451860796645
 40
1.0
 40
1.0
 40
1.0
 40
1.0
 10
75.14452800658816
 20
141.9154731578061
 30
0.0
 10
75.14586627360988
 20
141.9164300915813
 30
0.0
 10
75.16173954356238
 20
141.9277803437313
 30
0.0
 10
75.20808622802302
 20
141.9606001252092
 30
0.0
 10
75.26813023255505
 20
142.01564868814
 30
0.0
 10
75.29974036422843
 20
142.0446289724538
 30
0.0
  0
ARC
  5
243
330
1F
100
AcDbEntity
  8
0
  6
Continuous
 62
     8
370
     0
100
AcDbCircle
 10
75.4798572942
 20
142.3293979451
 30
0.0
 40
0.5327095462799278
100
AcDbArc
 50
180.1673177333
 51
230.9883310322
  0
ARC
  5
244
330
1F
100
AcDbEntity
  8
0
  6
Continuous
 62
     8
370
     0
100
AcDbCircle
 10
74.9344493259
 20
141.427139198
 30
0.0
 40
0.5316042780363007
100
AcDbArc
 50
4.2171920512
 51
66.7228812084
  0
ARC
  5
245
330
1F
100
AcDbEntity
  8
0
  6
Continuous
 62
     8
370
     0
100
AcDbCircle
 10
74.9344493259
 20
168.3022916308
 30
0.0
 40
0.5316042780363007
100
AcDbArc
 50
293.2771187916
 51
355.7828079489
  0
ELLIPSE
  5
246
330
1F
100
AcDbEntity
  8
0
  6
Continuous
 62
     8
370
     0
100
AcDbEllipse
 10
64.4399133121
 20
154.8647154144
 30
0.0
 11
0.0
 21
170.0000000000001
 31
0.0
210
0.0
220
0.0
230
1.0
 40
0.0020797258
 41
1.499940592549403
 42
1.64165206104039
  0
SPLINE
  5
247
330
1F
100
AcDbEntity
  8
0
  6
Continuous
 62
     8
370
     0
100
AcDbSpline
210
0.0
220
0.0
230
1.0
 70
     8
 71
     3
 72
    12
 73
     8
 74
     0
 42
0.00000001
 43
0.00000001
 40
0.0
 40
0.0
 40
0.0
 40
0.0
 40
0.3378509946402527
 40
0.5621236559495749
 40
0.7331196424654173
 40
0.8721417739913043
 40
1.0
 40
1.0
 40
1.0
 40
1.0
 10
64.58732259032601
 20
167.4015885240266
 30
0.0
 10
64.5121228137312
 20
167.3923885073327
 30
0.0
 10
64.38700382927746
 20
167.3770813242822
 30
0.0
 10
64.23572025061901
 20
167.2679869050592
 30
0.0
 10
64.14631258263614
 20
167.1487478174913
 30
0.0
 10
64.09592438128804
 20
167.0235718770402
 30
0.0
 10
64.0900577046967
 20
166.9401022340734
 30
0.0
 10
64.08724707124108
 20
166.900113227112
 30
0.0
  0
LINE
  5
248
330
1F
100
AcDbEntity
  8
0
  6
Continuous
 62
     8
370
     0
100
AcDbLine
 10
74.9471500194
 20
167.401588524
 30
0.0
 11
64.5873225903
 21
167.401588524
 31
0.0
  0
LINE
  5
249
330
1F
100
AcDbEntity
  8
0
  6
Continuous
 62
     8
370
     0
100
AcDbLine
 10
64.5873225903
 20
142.3278423047
 30
0.0
 11
74.9471500194
 21
142.3278423047
 31
0.0
  0
SPLINE
  5
24A
330
1F
100
AcDbEntity
  8
0
  6
Continuous
 62
     8
370
     0
100
AcDbSpline
210
0.0
220
0.0
230
1.0
 70
     8
 71
     3
 72
    12
 73
     8
 74
     0
 42
0.00000001
 43
0.00000001
 40
0.0
 40
0.0
 40
0.0
 40
0.0
 40
0.1364237554969069
 40
0.2724465265988026
 40
0.4494427026643627
 40
0.6927819628727826
 40
1.0
 40
1.0
 40
1.0
 40
1.0
 10
64.08724707124108
 20
142.8293176016637
 30
0.0
 10
64.0904498671745
 20
142.7865951350758
 30
0.0
 10
64.09684604520288
 20
142.7012757741827
 30
0.0
 10
64.15003237335601
 20
142.5740250803919
 30
0.0
 10
64.2445517752702
 20
142.4518040869036
 30
0.0
 10
64.3968753056938
 20
142.3493422887282
 30
0.0
 10
64.51911260735005
 20
142.3355426694145
 30
0.0
 10
64.58732259032601
 20
142.3278423047492
 30
0.0
  0
ARC
  5
24B
330
1F
100
AcDbEntity
  8
0
  6
Continuous
 62
     8
370
     0
100
AcDbCircle
 10
65.0195997935
 20
167.43826647
 30
0.0
 40
0.433830441675297
100
AcDbArc
 50
100.5842392973
 51
184.8498281413
  0
ELLIPSE
  5
24C
330
1F
100
AcDbEntity
  8
0
  6
Continuous
 62
     8
370
     0
100
AcDbEllipse
 10
74.9399133121
 20
167.3647154144
 30
0.0
 11
0.0
 21
0.5
 31
0.0
210
0.0
220
0.0
230
1.0
 40
0.7071067812
 41
6.025920784006116
 42
6.283185307179586
  0
LINE
  5
24D
330
1F
100
AcDbEntity
  8
0
  6
Continuous
 62
     8
370
     0
100
AcDbLine
 10
75.1445280066
 20
167.813957671
 30
0.0
 11
75.0298700905
 21
167.848260144
 31
0.0
  0
ARC
  5
24E
330
1F
100
AcDbEntity
  8
0
  6
Continuous
 62
     8
370
     0
100
AcDbCircle
 10
65.0195997935
 20
142.2911643588
 30
0.0
 40
0.433830441675297
100
AcDbArc
 50
175.1501718587
 51
259.4157607027
  0
LINE
  5
24F
330
1F
100
AcDbEntity
  8
0
  6
Continuous
 62
     8
370
     0
100
AcDbLine
 10
75.0298700905
 20
141.8811706847
 30
0.0
 11
75.1445280066
 21
141.9154731578
 31
0.0
  0
ELLIPSE
  5
250
330
1F
100
AcDbEntity
  8
0
  6
Continuous
 62
     8
370
     0
100
AcDbEllipse
 10
74.9399133121
 20
142.3647154144
 30
0.0
 11
0.0
 21
0.5
 31
0.0
210
0.0
220
0.0
230
1.0
 40
0.7071067812
 41
3.141592653589793
 42
3.398857176763316
  0
ARC
  5
251
330
1F
100
AcDbEntity
  8
0
  6
Continuous
 62
     8
370
     0
100
AcDbCircle
 10
74.9459565596
 20
168.3350483132
 30
0.0
 40
0.4939678150470964
100
AcDbArc
 50
279.7806394494
 51
359.6237661697
  0
ARC
  5
252
330
1F
100
AcDbEntity
  8
0
  6
Continuous
 62
     8
370
     0
100
AcDbCircle
 10
74.9459565596
 20
141.3943825156
 30
0.0
 40
0.4939678150471017
100
AcDbArc
 50
0.3762338303
 51
80.2193605506
  0
LINE
  5
253
330
1F
100
AcDbEntity
  8
0
  6
Continuous
 62
     8
370
     0
100
AcDbLine
 10
77.4154919809
 20
139.3647156677
 30
0.0
 11
77.9399132034
 21
139.3647156677
 31
0.0
  0
ARC
  5
254
330
1F
100
AcDbEntity
  8
0
  6
Continuous
 62
     8
370
     0
100
AcDbCircle
 10
64.0697481047
 20
143.0808010679
 30
0.0
 40
0.2520915460823162
100
AcDbArc
 50
239.0004976499
 51
273.9803947197
  0
ARC
  5
255
330
1F
100
AcDbEntity
  8
0
  6
Continuous
 62
     8
370
     0
100
AcDbCircle
 10
64.0697481047
 20
166.6486297609
 30
0.0
 40
0.2520915460823162
100
AcDbArc
 50
86.0196052803
 51
120.9995023501
  0
LINE
  5
256
330
1F
100
AcDbEntity
  8
0
  6
Continuous
 62
     8
370
     0
100
AcDbLine
 10
75.9399128756
 20
171.0647158346
 30
0.0
 11
75.9399128756
 21
170.8647161743
 31
0.0
  0
LINE
  5
257
330
1F
100
AcDbEntity
  8
0
  6
Continuous
 62
     8
370
     0
100
AcDbLine
 10
75.9399128756
 20
171.0647158346
 30
0.0
 11
77.4399131214
 21
171.0647158346
 31
0.0
  0
LINE
  5
258
330
1F
100
AcDbEntity
  8
0
  6
Continuous
 62
     8
370
     0
100
AcDbLine
 10
77.4399131214
 20
170.8647161743
 30
0.0
 11
77.4399131214
 21
171.0647158346
 31
0.0
  0
LINE
  5
259
330
1F
100
AcDbEntity
  8
0
  6
Continuous
 62
     8
370
     0
100
AcDbLine
 10
77.9399132034
 20
171.0647158346
 30
0.0
 11
77.4399131214
 21
171.0647158346
 31
0.0
  0
LINE
  5
25A
330
1F
100
AcDbEntity
  8
0
  6
Continuous
 62
     8
370
     0
100
AcDbLine
 10
75.4399137249
 20
171.0647158346
 30
0.0
 11
75.9399128756
 21
171.0647158346
 31
0.0
  0
LINE
  5
25B
330
1F
100
AcDbEntity
  8
0
  6
Continuous
 62
     8
370
     0
100
AcDbLine
 10
77.4399131214
 20
138.6647149942
 30
0.0
 11
77.4399131214
 21
138.8647146544
 31
0.0
  0
LINE
  5
25C
330
1F
100
AcDbEntity
  8
0
  6
Continuous
 62
     8
370
     0
100
AcDbLine
 10
77.4399131214
 20
138.6647149942
 30
0.0
 11
77.9399132034
 21
138.6647149942
 31
0.0
  0
LINE
  5
25D
330
1F
100
AcDbEntity
  8
0
  6
Continuous
 62
     8
370
     0
100
AcDbLine
 10
75.9399128756
 20
138.8647146544
 30
0.0
 11
75.9399128756
 21
138.6647149942
 31
0.0
  0
LINE
  5
25E
330
1F
100
AcDbEntity
  8
0
  6
Continuous
 62
     8
370
     0
100
AcDbLine
 10
77.4399131214
 20
138.6647149942
 30
0.0
 11
75.9399128756
 21
138.6647149942
 31
0.0
  0
LINE
  5
25F
330
1F
100
AcDbEntity
  8
0
  6
Continuous
 62
     8
370
     0
100
AcDbLine
 10
75.9399128756
 20
138.6647149942
 30
0.0
 11
75.4399137249
 21
138.6647149942
 31
0.0
  0
LINE
  5
260
330
1F
100
AcDbEntity
  8
0
  6
Continuous
 62
     8
370
     0
100
AcDbLine
 10
75.9399128756
 20
171.1647156647
 30
0.0
 11
75.9399128756
 21
171.0647158346
 31
0.0
  0
LINE
  5
261
330
1F
100
AcDbEntity
  8
0
  6
Continuous
 62
     8
370
     0
100
AcDbLine
 10
77.4399131214
 20
171.0647158346
 30
0.0
 11
77.4399131214
 21
171.1647156647
 31
0.0
  0
LINE
  5
262
330
1F
100
AcDbEntity
  8
0
  6
Continuous
 62
     8
370
     0
100
AcDbLine
 10
77.4399131214
 20
138.564715164
 30
0.0
 11
77.4399131214
 21
138.6647149942
 31
0.0
  0
LINE
  5
263
330
1F
100
AcDbEntity
  8
0
  6
Continuous
 62
     8
370
     0
100
AcDbLine
 10
75.9399128756
 20
138.6647149942
 30
0.0
 11
75.9399128756
 21
138.564715164
 31
0.0
  0
LINE
  5
264
330
1F
100
AcDbEntity
  8
0
  6
Continuous
 62
     8
370
     0
100
AcDbLine
 10
75.4399137249
 20
141.3647150642
 30
0.0
 11
74.9973408556
 21
141.3647150642
 31
0.0
  0
LINE
  5
265
330
1F
100
AcDbEntity
  8
0
  6
Continuous
 62
     8
370
     0
100
AcDbLine
 10
74.939913643
 20
141.4636056892
 30
0.0
 11
74.939913643
 21
141.8647151462
 31
0.0
  0
LINE
  5
266
330
1F
100
AcDbEntity
  8
0
  6
Continuous
 62
     8
370
     0
100
AcDbLine
 10
73.4399133971
 20
141.6647154859
 30
0.0
 11
73.4399133971
 21
141.8647151462
 31
0.0
  0
LINE
  5
267
330
1F
100
AcDbEntity
  8
0
  6
Continuous
 62
     8
370
     0
100
AcDbLine
 10
64.4390835105
 20
168.0647153429
 30
0.0
 11
64.4390835105
 21
167.7195457763
 31
0.0
  0
LINE
  5
268
330
1F
100
AcDbEntity
  8
0
  6
Continuous
 62
     8
370
     0
100
AcDbLine
 10
64.4390835105
 20
142.0156518019
 30
0.0
 11
64.4390835105
 21
141.6647154859
 31
0.0
  0
DIMENSION
  5
269
330
1F
100
AcDbEntity
  8
0
  6
Continuous
 62
     7
370
     0
100
AcDbDimension
  2
*D8
 10
73.3206534267
 20
204.2397154144
 30
0.0
 11
94.416186586
 21
216.4192313891
 31
0.0
 70
   163
  1
<>
 71
     1
 42
-1.0
  3
SLDDIMSTYLE0
100
AcDbDiametricDimension
 15
68.5575137059
 25
201.4897154144
 35
0.0
 40
0.0
  0
DIMENSION
  5
275
330
1F
100
AcDbEntity
  8
0
  6
Continuous
 62
     7
370
     0
100
AcDbDimension
  2
*D9
 10
58.9390835663
 20
221.9720417434
 30
0.0
 11
69.7728083017
 21
221.9720417434
 31
0.0
 70
   160
 71
     2
 42
-1.0
  3
SLDDIMSTYLE1
100
AcDbAlignedDimension
 13
82.9390835663
 23
209.8647154144
 33
0.0
 14
58.9390835663
 24
209.8647154144
 34
0.0
 50
0.0
100
AcDbRotatedDimension
  0
DIMENSION
  5
280
330
1F
100
AcDbEntity
  8
0
  6
Continuous
 62
     7
370
     0
100
AcDbDimension
  2
*D10
 10
35.3517531423
 20
99.8647154144
 30
0.0
 11
35.3517531423
 21
153.6984401497
 31
0.0
 70
   160
 71
     2
 42
-1.0
  3
SLDDIMSTYLE1
100
AcDbAlignedDimension
 13
58.9390835663
 23
209.8647154144
 33
0.0
 14
58.9390835663
 24
99.8647154144
 34
0.0
 50
90.0
100
AcDbRotatedDimension
  0
DIMENSION
  5
28A
330
1F
100
AcDbEntity
  8
0
  6
Continuous
 62
     7
370
     0
100
AcDbDimension
  2
*D11
 10
110.9390835663
 20
202.8647154144
 30
0.0
 11
110.9390835663
 21
153.6984401497
 31
0.0
 70
   160
 71
     2
 42
-1.0
  3
SLDDIMSTYLE1
100
AcDbAlignedDimension
 13
78.6390835663
 23
106.8647154144
 33
0.0
 14
78.6390835663
 24
202.8647154144
 34
0.0
 50
90.0
100
AcDbRotatedDimension
  0
DIMENSION
  5
294
330
1F
100
AcDbEntity
  8
0
  6
Continuous
 62
     7
370
     0
100
AcDbDimension
  2
*D12
 10
103.5039141621
 20
132.8647154144
 30
0.0
 11
103.5039141621
 21
153.6984401497
 31
0.0
 70
   160
 71
     2
 42
-1.0
  3
SLDDIMSTYLE1
100
AcDbAlignedDimension
 13
70.9390835663
 23
176.8647154144
 33
0.0
 14
70.9390835663
 24
132.8647154144
 34
0.0
 50
90.0
100
AcDbRotatedDimension
  0
DIMENSION
  5
29E
330
1F
100
AcDbEntity
  8
0
  6
Continuous
 62
     7
370
     0
100
AcDbDimension
  2
*D13
 10
42.9390835663
 20
141.6647154144
 30
0.0
 11
42.9390835663
 21
155.8767188411
 31
0.0
 70
   160
 71
     2
 42
-1.0
  3
SLDDIMSTYLE1
100
AcDbAlignedDimension
 13
63.6390835663
 23
168.0647154144
 33
0.0
 14
63.6390835663
 24
141.6647154144
 34
0.0
 50
90.0
100
AcDbRotatedDimension
  0
DIMENSION
  5
2A8
330
1F
100
AcDbEntity
  8
0
  6
Continuous
 62
     7
370
     0
100
AcDbDimension
  2
*D14
 10
96.3969241044
 20
171.1647154144
 30
0.0
 11
96.3969241044
 21
153.6984401497
 31
0.0
 70
   160
 71
     2
 42
-1.0
  3
SLDDIMSTYLE1
100
AcDbAlignedDimension
 13
78.2390835663
 23
138.5647154144
 33
0.0
 14
78.2390835663
 24
171.1647154144
 34
0.0
 50
90.0
100
AcDbRotatedDimension
  0
DIMENSION
  5
2B2
330
1F
100
AcDbEntity
  8
0
  6
Continuous
 62
     7
370
     0
100
AcDbDimension
  2
*D15
 10
78.2390835663
 20
159.8495247246
 30
0.0
 11
87.5715849525
 21
159.8495247246
 31
0.0
 70
   160
 71
     2
 42
-1.0
  3
SLDDIMSTYLE2
100
AcDbAlignedDimension
 13
82.9390835663
 23
209.8647154144
 33
0.0
 14
78.2390835663
 24
171.1647154144
 34
0.0
 50
0.0
100
AcDbRotatedDimension
  0
DIMENSION
  5
2BD
330
1F
100
AcDbEntity
  8
0
  6
Continuous
 62
     7
370
     0
100
AcDbDimension
  2
*D16
 10
78.2390835663
 20
89.8647154144
 30
0.0
 11
68.2654815826
 21
89.8647154144
 31
0.0
 70
   160
 71
     2
 42
-1.0
  3
SLDDIMSTYLE2
100
AcDbAlignedDimension
 13
75.0390835663
 23
138.5647154144
 33
0.0
 14
78.2390835663
 24
138.5647154144
 34
0.0
100
AcDbRotatedDimension
  0
DIMENSION
  5
2C9
330
1F
100
AcDbEntity
  8
0
  6
Continuous
 62
     7
370
     0
100
AcDbDimension
  2
*D17
 10
63.6390835663
 20
82.1045034016
 30
0.0
 11
69.7728083017
 21
82.1045034016
 31
0.0
 70
   160
 71
     2
 42
-1.0
  3
SLDDIMSTYLE1
100
AcDbAlignedDimension
 13
78.2390835663
 23
138.5647154144
 33
0.0
 14
63.6390835663
 24
141.6647154144
 34
0.0
 50
0.0
100
AcDbRotatedDimension
  0
DIMENSION
  5
2D5
330
1F
100
AcDbEntity
  8
0
  6
Continuous
 62
     7
370
     0
100
AcDbDimension
  2
*D18
 10
63.6390835663
 20
159.8507452147
 30
0.0
 11
69.4205996572
 21
159.8507452147
 31
0.0
 70
   160
 71
     2
 42
-1.0
  3
SLDDIMSTYLE1
100
AcDbAlignedDimension
 13
78.2390835663
 23
171.1647154144
 33
0.0
 14
63.6390835663
 24
168.0647154144
 34
0.0
 50
0.0
100
AcDbRotatedDimension
  0
INSERT
  5
2E8
330
1F
100
AcDbEntity
  8
0
  6
Continuous
 62
     7
370
     0
100
AcDbBlockReference
  2
SW_CENTERMARKSYMBOL_0
 10
70.9390835663
 20
202.8647154144
 30
0.0
  0
INSERT
  5
2F4
330
1F
100
AcDbEntity
  8
0
  6
Continuous
 62
     7
370
     0
100
AcDbBlockReference
  2
SW_CENTERMARKSYMBOL_1
 10
70.9390835663
 20
176.8647154144
 30
0.0
  0
INSERT
  5
300
330
1F
100
AcDbEntity
  8
0
  6
Continuous
 62
     7
370
     0
100
AcDbBlockReference
  2
SW_CENTERMARKSYMBOL_2
 10
70.9390835663
 20
132.8647154144
 30
0.0
  0
INSERT
  5
30C
330
1F
100
AcDbEntity
  8
0
  6
Continuous
 62
     7
370
     0
100
AcDbBlockReference
  2
SW_CENTERMARKSYMBOL_3
 10
70.9390835663
 20
106.8647154144
 30
0.0
  0
LINE
  5
30D
330
1F
100
AcDbEntity
  8
0
  6
CENTERX2
 62
     7
370
     0
100
AcDbLine
 10
56.9390835663
 20
154.8647154144
 30
0.0
 11
84.9390835663
 21
154.8647154144
 31
0.0
  0
LINE
  5
30E
330
1F
100
AcDbEntity
  8
0
  6
Continuous
 62
     7
370
    30
100
AcDbLine
 10
175.4478273149
 20
180.6297153256
 30
0.0
 11
175.2678287383
 21
180.6297153256
 31
0.0
  0
LINE
  5
30F
330
1F
100
AcDbEntity
  8
0
  6
Continuous
 62
     7
370
    30
100
AcDbLine
 10
175.2678287383
 20
173.0997152648
 30
0.0
 11
175.4478273149
 21
173.0997152648
 31
0.0
  0
LINE
  5
310
330
1F
100
AcDbEntity
  8
0
  6
Continuous
 62
     7
370
    30
100
AcDbLine
 10
175.4478273149
 20
136.629715564
 30
0.0
 11
175.2678287383
 21
136.629715564
 31
0.0
  0
LINE
  5
311
330
1F
100
AcDbEntity
  8
0
  6
Continuous
 62
     7
370
    30
100
AcDbLine
 10
175.2678287383
 20
129.0997155032
 30
0.0
 11
175.4478273149
 21
129.0997155032
 31
0.0
  0
LINE
  5
312
330
1F
100
AcDbEntity
  8
0
  6
Continuous
 62
     7
370
    30
100
AcDbLine
 10
175.4478273149
 20
180.6297153256
 30
0.0
 11
175.4478273149
 21
173.0997152648
 31
0.0
  0
LINE
  5
313
330
1F
100
AcDbEntity
  8
0
  6
Continuous
 62
     7
370
    30
100
AcDbLine
 10
175.4478273149
 20
136.629715564
 30
0.0
 11
175.4478273149
 21
129.0997155032
 31
0.0
  0
LINE
  5
314
330
1F
100
AcDbEntity
  8
0
  6
Continuous
 62
     7
370
    30
100
AcDbLine
 10
175.2678287383
 20
209.8647151164
 30
0.0
 11
172.2678282466
 21
209.8647151164
 31
0.0
  0
LINE
  5
315
330
1F
100
AcDbEntity
  8
0
  6
Continuous
 62
     7
370
    30
100
AcDbLine
 10
175.2678287383
 20
209.8647151164
 30
0.0
 11
175.2678287383
 21
99.8647157124
 31
0.0
  0
LINE
  5
316
330
1F
100
AcDbEntity
  8
0
  6
Continuous
 62
     7
370
    30
100
AcDbLine
 10
175.2678287383
 20
99.8647157124
 30
0.0
 11
172.2678282466
 21
99.8647157124
 31
0.0
  0
LINE
  5
317
330
1F
100
AcDbEntity
  8
0
  6
Continuous
 62
     7
370
    30
100
AcDbLine
 10
172.2678282466
 20
209.8647151164
 30
0.0
 11
172.2678282466
 21
99.8647157124
 31
0.0
  0
LINE
  5
318
330
1F
100
AcDbEntity
  8
0
  6
Continuous
 62
     7
370
    30
100
AcDbLine
 10
153.7678280081
 20
136.6147156826
 30
0.0
 11
147.517827915
 21
136.6147156826
 31
0.0
  0
LINE
  5
319
330
1F
100
AcDbEntity
  8
0
  6
Continuous
 62
     7
370
    30
100
AcDbLine
 10
147.517827915
 20
134.6147153548
 30
0.0
 11
159.9678281862
 21
134.6147153548
 31
0.0
  0
ARC
  5
31A
330
1F
100
AcDbEntity
  8
0
  6
Continuous
 62
     7
370
    30
100
AcDbCircle
 10
147.5178280081
 20
135.6147154144
 30
0.0
 40
1.0
100
AcDbArc
 50
90.0
 51
270.0
  0
LINE
  5
31B
330
1F
100
AcDbEntity
  8
0
  6
Continuous
 62
     7
370
    30
100
AcDbLine
 10
160.0178281013
 20
175.114715474
 30
0.0
 11
147.517827915
 21
175.114715474
 31
0.0
  0
LINE
  5
31C
330
1F
100
AcDbEntity
  8
0
  6
Continuous
 62
     7
370
    30
100
AcDbLine
 10
147.517827915
 20
173.1147151462
 30
0.0
 11
153.7678280081
 21
173.1147151462
 31
0.0
  0
ARC
  5
31D
330
1F
100
AcDbEntity
  8
0
  6
Continuous
 62
     7
370
    30
100
AcDbCircle
 10
160.0178280081
 20
174.1147154144
 30
0.0
 40
0.9999999999999766
100
AcDbArc
 50
345.5224878141
 51
90.0
  0
ARC
  5
31E
330
1F
100
AcDbEntity
  8
0
  6
Continuous
 62
     7
370
    30
100
AcDbCircle
 10
147.5178280081
 20
174.1147154144
 30
0.0
 40
1.000000000000028
100
AcDbArc
 50
90.0
 51
270.0
  0
LINE
  5
31F
330
1F
100
AcDbEntity
  8
0
  6
Continuous
 62
     7
370
    30
100
AcDbLine
 10
165.6678282823
 20
184.8647147438
 30
0.0
 11
165.6678282823
 21
185.0647162667
 31
0.0
  0
LINE
  5
320
330
1F
100
AcDbEntity
  8
0
  6
Continuous
 62
     7
370
    30
100
AcDbLine
 10
169.8678285982
 20
183.164715769
 30
0.0
 11
167.3242599871
 21
183.164715769
 31
0.0
  0
LINE
  5
321
330
1F
100
AcDbEntity
  8
0
  6
Continuous
 62
     7
370
    30
100
AcDbLine
 10
169.8678285982
 20
185.0647162667
 30
0.0
 11
169.8678285982
 21
184.8647147438
 31
0.0
  0
LINE
  5
322
330
1F
100
AcDbEntity
  8
0
  6
Continuous
 62
     7
370
    30
100
AcDbLine
 10
169.8678285982
 20
183.3647154293
 30
0.0
 11
169.8678285982
 21
183.164715769
 31
0.0
  0
LINE
  5
323
330
1F
100
AcDbEntity
  8
0
  6
Continuous
 62
     7
370
    30
100
AcDbLine
 10
165.6678282823
 20
185.0647162667
 30
0.0
 11
169.8678285982
 21
185.0647162667
 31
0.0
  0
LINE
  5
324
330
1F
100
AcDbEntity
  8
0
  6
Continuous
 62
     7
370
    30
100
AcDbLine
 10
141.867827734
 20
124.664714562
 30
0.0
 11
137.6678274181
 21
124.664714562
 31
0.0
  0
LINE
  5
325
330
1F
100
AcDbEntity
  8
0
  6
Continuous
 62
     7
370
    30
100
AcDbLine
 10
141.867827734
 20
124.8647160849
 30
0.0
 11
141.867827734
 21
124.664714562
 31
0.0
  0
LINE
  5
326
330
1F
100
AcDbEntity
  8
0
  6
Continuous
 62
     7
370
    30
100
AcDbLine
 10
137.6678274181
 20
126.5647150597
 30
0.0
 11
140.2113960292
 21
126.5647150597
 31
0.0
  0
LINE
  5
327
330
1F
100
AcDbEntity
  8
0
  6
Continuous
 62
     7
370
    30
100
AcDbLine
 10
137.6678274181
 20
124.664714562
 30
0.0
 11
137.6678274181
 21
124.8647160849
 31
0.0
  0
LINE
  5
328
330
1F
100
AcDbEntity
  8
0
  6
Continuous
 62
     7
370
    30
100
AcDbLine
 10
137.6678274181
 20
126.3647153995
 30
0.0
 11
137.6678274181
 21
126.5647150597
 31
0.0
  0
LINE
  5
329
330
1F
100
AcDbEntity
  8
0
  6
Continuous
 62
     7
370
    30
100
AcDbLine
 10
137.2678280976
 20
186.8647169343
 30
0.0
 11
170.2678279187
 21
186.8647169343
 31
0.0
  0
ARC
  5
32A
330
1F
100
AcDbEntity
  8
0
  6
Continuous
 62
     7
370
    30
100
AcDbCircle
 10
170.2678280081
 20
184.8647154144
 30
0.0
 40
2.0
100
AcDbArc
 50
0.0
 51
90.0
  0
LINE
  5
32B
330
1F
100
AcDbEntity
  8
0
  6
Continuous
 62
     7
370
    30
100
AcDbLine
 10
135.2678277697
 20
126.3647153995
 30
0.0
 11
135.2678277697
 21
126.8647145501
 31
0.0
  0
LINE
  5
32C
330
1F
100
AcDbEntity
  8
0
  6
Continuous
 62
     7
370
    30
100
AcDbLine
 10
135.2678277697
 20
182.8647162787
 30
0.0
 11
135.2678277697
 21
183.3647154293
 31
0.0
  0
ARC
  5
32D
330
1F
100
AcDbEntity
  8
0
  6
Continuous
 62
     7
370
    30
100
AcDbCircle
 10
137.2678280081
 20
184.8647154144
 30
0.0
 40
2.0
100
AcDbArc
 50
90.0
 51
180.0
  0
LINE
  5
32E
330
1F
100
AcDbEntity
  8
0
  6
Continuous
 62
     7
370
    30
100
AcDbLine
 10
140.1965358462
 20
183.164715769
 30
0.0
 11
137.6678274181
 21
183.164715769
 31
0.0
  0
LINE
  5
32F
330
1F
100
AcDbEntity
  8
0
  6
Continuous
 62
     7
370
    30
100
AcDbLine
 10
141.867827734
 20
185.0647162667
 30
0.0
 11
141.867827734
 21
184.8647147438
 31
0.0
  0
LINE
  5
330
330
1F
100
AcDbEntity
  8
0
  6
Continuous
 62
     7
370
    30
100
AcDbLine
 10
137.6678274181
 20
185.0647162667
 30
0.0
 11
141.867827734
 21
185.0647162667
 31
0.0
  0
LINE
  5
331
330
1F
100
AcDbEntity
  8
0
  6
Continuous
 62
     7
370
    30
100
AcDbLine
 10
137.6678274181
 20
183.164715769
 30
0.0
 11
137.6678274181
 21
183.3647154293
 31
0.0
  0
LINE
  5
332
330
1F
100
AcDbEntity
  8
0
  6
Continuous
 62
     7
370
    30
100
AcDbLine
 10
137.6678274181
 20
184.8647147438
 30
0.0
 11
137.6678274181
 21
185.0647162667
 31
0.0
  0
LINE
  5
333
330
1F
100
AcDbEntity
  8
0
  6
Continuous
 62
     7
370
    30
100
AcDbLine
 10
165.6678282823
 20
124.664714562
 30
0.0
 11
165.6678282823
 21
124.8647160849
 31
0.0
  0
LINE
  5
334
330
1F
100
AcDbEntity
  8
0
  6
Continuous
 62
     7
370
    30
100
AcDbLine
 10
169.8678285982
 20
124.664714562
 30
0.0
 11
165.6678282823
 21
124.664714562
 31
0.0
  0
LINE
  5
335
330
1F
100
AcDbEntity
  8
0
  6
Continuous
 62
     7
370
    30
100
AcDbLine
 10
169.8678285982
 20
126.5647150597
 30
0.0
 11
169.8678285982
 21
126.3647153995
 31
0.0
  0
LINE
  5
336
330
1F
100
AcDbEntity
  8
0
  6
Continuous
 62
     7
370
    30
100
AcDbLine
 10
169.8678285982
 20
124.8647160849
 30
0.0
 11
169.8678285982
 21
124.664714562
 31
0.0
  0
LINE
  5
337
330
1F
100
AcDbEntity
  8
0
  6
Continuous
 62
     7
370
    30
100
AcDbLine
 10
167.3391201701
 20
126.5647150597
 30
0.0
 11
169.8678285982
 21
126.5647150597
 31
0.0
  0
ARC
  5
338
330
1F
100
AcDbEntity
  8
0
  6
Continuous
 62
     7
370
    30
100
AcDbCircle
 10
170.2678280081
 20
124.8647154144
 30
0.0
 40
2.0
100
AcDbArc
 50
270.0
 51
0.0
  0
LINE
  5
339
330
1F
100
AcDbEntity
  8
0
  6
Continuous
 62
     7
370
    30
100
AcDbLine
 10
170.2678279187
 20
122.8647138945
 30
0.0
 11
137.2678280976
 21
122.8647138945
 31
0.0
  0
ARC
  5
33A
330
1F
100
AcDbEntity
  8
0
  6
Continuous
 62
     7
370
    30
100
AcDbCircle
 10
137.2678280081
 20
124.8647154144
 30
0.0
 40
2.0
100
AcDbArc
 50
180.0
 51
270.0
  0
LINE
  5
33B
330
1F
100
AcDbEntity
  8
0
  6
Continuous
 62
     7
370
    30
100
AcDbLine
 10
181.4080012198
 20
141.8647151462
 30
0.0
 11
175.2678287383
 21
141.8647151462
 31
0.0
  0
LINE
  5
33C
330
1F
100
AcDbEntity
  8
0
  6
Continuous
 62
     7
370
    30
100
AcDbLine
 10
164.7008407097
 20
141.8647151462
 30
0.0
 11
162.8900152799
 21
141.8647151462
 31
0.0
  0
LINE
  5
33D
330
1F
100
AcDbEntity
  8
0
  6
Continuous
 62
     7
370
    30
100
AcDbLine
 10
162.8900152799
 20
167.8647156826
 30
0.0
 11
164.7008407097
 21
167.8647156826
 31
0.0
  0
LINE
  5
33E
330
1F
100
AcDbEntity
  8
0
  6
Continuous
 62
     7
370
    30
100
AcDbLine
 10
175.2678287383
 20
167.8647156826
 30
0.0
 11
181.4080012198
 21
167.8647156826
 31
0.0
  0
LINE
  5
33F
330
1F
100
AcDbEntity
  8
0
  6
Continuous
 62
     7
370
    30
100
AcDbLine
 10
191.4080009963
 20
141.8647151462
 30
0.0
 11
181.4080012198
 21
141.8647151462
 31
0.0
  0
LINE
  5
340
330
1F
100
AcDbEntity
  8
0
  6
Continuous
 62
     7
370
    30
100
AcDbLine
 10
181.4080012198
 20
167.8647156826
 30
0.0
 11
191.4080009963
 21
167.8647156826
 31
0.0
  0
LINE
  5
341
330
1F
100
AcDbEntity
  8
0
  6
Continuous
 62
     7
370
    30
100
AcDbLine
 10
160.4678278025
 20
139.2647158376
 30
0.0
 11
164.4678284582
 21
139.2647158376
 31
0.0
  0
ARC
  5
342
330
1F
100
AcDbEntity
  8
0
  6
Continuous
 62
     7
370
    30
100
AcDbCircle
 10
164.4678280081
 20
138.7647154144
 30
0.0
 40
0.5000000000000228
100
AcDbArc
 50
53.1301023541
 51
90.0
  0
LINE
  5
343
330
1F
100
AcDbEntity
  8
0
  6
Continuous
 62
     7
370
    30
100
AcDbLine
 10
159.9678281862
 20
129.8647150419
 30
0.0
 11
159.9678281862
 21
138.7647148243
 31
0.0
  0
ARC
  5
344
330
1F
100
AcDbEntity
  8
0
  6
Continuous
 62
     7
370
    30
100
AcDbCircle
 10
160.4678280081
 20
138.7647154144
 30
0.0
 40
0.5
100
AcDbArc
 50
90.0
 51
180.0
  0
LINE
  5
345
330
1F
100
AcDbEntity
  8
0
  6
Continuous
 62
     7
370
    30
100
AcDbLine
 10
159.9678281862
 20
138.7647148243
 30
0.0
 11
159.9678281862
 21
139.9647155798
 31
0.0
  0
LINE
  5
346
330
1F
100
AcDbEntity
  8
0
  6
Continuous
 62
     7
370
    30
100
AcDbLine
 10
192.2678277995
 20
167.3647156007
 30
0.0
 11
192.2678277995
 21
142.3647152281
 31
0.0
  0
ARC
  5
347
330
1F
100
AcDbEntity
  8
0
  6
Continuous
 62
     7
370
    30
100
AcDbCircle
 10
159.4678280081
 20
135.3647154144
 30
0.0
 40
0.5
100
AcDbArc
 50
0.0
 51
90.0
  0
ARC
  5
348
330
1F
100
AcDbEntity
  8
0
  6
Continuous
 62
     7
370
    30
100
AcDbCircle
 10
191.7678280081
 20
142.3647154144
 30
0.0
 40
0.5
100
AcDbArc
 50
320.1952732313
 51
0.0
  0
ARC
  5
349
330
1F
100
AcDbEntity
  8
0
  6
Continuous
 62
     7
370
    30
100
AcDbCircle
 10
191.7678280081
 20
167.3647154144
 30
0.0
 40
0.5
100
AcDbArc
 50
0.0
 51
39.8047267688
  0
LINE
  5
34A
330
1F
100
AcDbEntity
  8
0
  6
Continuous
 62
     7
370
    30
100
AcDbLine
 10
170.767828932
 20
138.6647149942
 30
0.0
 11
170.767828932
 21
138.3647155038
 31
0.0
  0
LINE
  5
34B
330
1F
100
AcDbEntity
  8
0
  6
Continuous
 62
     7
370
    30
100
AcDbLine
 10
159.4678281043
 20
135.8647160253
 30
0.0
 11
154.2678280319
 21
135.8647160253
 31
0.0
  0
ARC
  5
34C
330
1F
100
AcDbEntity
  8
0
  6
Continuous
 62
     7
370
    30
100
AcDbCircle
 10
154.2678280081
 20
136.3647154144
 30
0.0
 40
0.5
100
AcDbArc
 50
180.0
 51
270.0
  0
ARC
  5
34D
330
1F
100
AcDbEntity
  8
0
  6
Continuous
 62
     7
370
    30
100
AcDbCircle
 10
191.7678280081
 20
139.3647154144
 30
0.0
 40
0.5
100
AcDbArc
 50
270.0
 51
0.0
  0
LINE
  5
34E
330
1F
100
AcDbEntity
  8
0
  6
Continuous
 62
     7
370
    30
100
AcDbLine
 10
153.7678280081
 20
136.364715176
 30
0.0
 11
153.7678280081
 21
139.9647155798
 31
0.0
  0
LINE
  5
34F
330
1F
100
AcDbEntity
  8
0
  6
Continuous
 62
     7
370
    30
100
AcDbLine
 10
191.7678267863
 20
138.8647146544
 30
0.0
 11
175.2678287383
 21
138.8647146544
 31
0.0
  0
LINE
  5
350
330
1F
100
AcDbEntity
  8
0
  6
Continuous
 62
     7
370
    30
100
AcDbLine
 10
172.2678282466
 20
138.8647146544
 30
0.0
 11
170.9678285923
 21
138.8647146544
 31
0.0
  0
LINE
  5
351
330
1F
100
AcDbEntity
  8
0
  6
Continuous
 62
     7
370
    30
100
AcDbLine
 10
192.2678277995
 20
142.3647152281
 30
0.0
 11
192.2678277995
 21
139.3647156677
 31
0.0
  0
ARC
  5
352
330
1F
100
AcDbEntity
  8
0
  6
Continuous
 62
     7
370
    30
100
AcDbCircle
 10
170.9678280081
 20
138.6647154144
 30
0.0
 40
0.2000000000000171
100
AcDbArc
 50
90.0
 51
180.0
  0
LWPOLYLINE
  5
353
330
1F
100
AcDbEntity
  8
0
  6
Continuous
 62
     7
370
    30
100
AcDbPolyline
 90
        9
 70
   128
 43
0.0
 10
191.7678267863
 20
170.3647151611
 10
191.8653735127
 20
170.4622609562
 10
191.9591688719
 20
170.5560572467
 10
192.0456142332
 20
170.6425007454
 10
192.1213829126
 20
170.7182694248
 10
192.183561733
 20
170.7804501078
 10
192.2297665085
 20
170.8266548834
 10
192.2582202758
 20
170.8551086507
 10
192.2678277995
 20
170.8647161743
  0
LINE
  5
354
330
1F
100
AcDbEntity
  8
0
  6
Continuous
 62
     7
370
    30
100
AcDbLine
 10
192.2678277995
 20
170.8647161743
 30
0.0
 11
192.2678277995
 21
167.3647156007
 31
0.0
  0
LINE
  5
355
330
1F
100
AcDbEntity
  8
0
  6
Continuous
 62
     7
370
    30
100
AcDbLine
 10
153.7678280081
 20
169.764715249
 30
0.0
 11
153.7678280081
 21
173.3647156528
 31
0.0
  0
LINE
  5
356
330
1F
100
AcDbEntity
  8
0
  6
Continuous
 62
     7
370
    30
100
AcDbLine
 10
170.9678285923
 20
170.8647161743
 30
0.0
 11
172.2678282466
 21
170.8647161743
 31
0.0
  0
LINE
  5
357
330
1F
100
AcDbEntity
  8
0
  6
Continuous
 62
     7
370
    30
100
AcDbLine
 10
175.2678287383
 20
170.8647161743
 30
0.0
 11
192.2678277995
 21
170.8647161743
 31
0.0
  0
ARC
  5
358
330
1F
100
AcDbEntity
  8
0
  6
Continuous
 62
     7
370
    30
100
AcDbCircle
 10
170.9678280081
 20
171.0647154144
 30
0.0
 40
0.2000000000000171
100
AcDbArc
 50
180.0
 51
270.0
  0
LINE
  5
359
330
1F
100
AcDbEntity
  8
0
  6
Continuous
 62
     7
370
    30
100
AcDbLine
 10
170.767828932
 20
171.364715325
 30
0.0
 11
170.767828932
 21
171.0647158346
 31
0.0
  0
LINE
  5
35A
330
1F
100
AcDbEntity
  8
0
  6
Continuous
 62
     7
370
    30
100
AcDbLine
 10
154.2678280319
 20
173.8647148034
 30
0.0
 11
164.7678279485
 21
173.8647148034
 31
0.0
  0
ARC
  5
35B
330
1F
100
AcDbEntity
  8
0
  6
Continuous
 62
     7
370
    30
100
AcDbCircle
 10
154.2678280081
 20
173.3647154144
 30
0.0
 40
0.5
100
AcDbArc
 50
90.0
 51
180.0
  0
LINE
  5
35C
330
1F
100
AcDbEntity
  8
0
  6
Continuous
 62
     7
370
    30
100
AcDbLine
 10
143.2678281497
 20
142.1147156528
 30
0.0
 11
144.2678283136
 21
142.1147156528
 31
0.0
  0
ARC
  5
35D
330
1F
100
AcDbEntity
  8
0
  6
Continuous
 62
     7
370
    30
100
AcDbCircle
 10
143.2678280081
 20
141.6147154144
 30
0.0
 40
0.5
100
AcDbArc
 50
90.0
 51
180.0
  0
LINE
  5
35E
330
1F
100
AcDbEntity
  8
0
  6
Continuous
 62
     7
370
    30
100
AcDbLine
 10
142.7678280677
 20
130.3647160551
 30
0.0
 11
142.7678280677
 21
141.6147155709
 31
0.0
  0
ARC
  5
35F
330
1F
100
AcDbEntity
  8
0
  6
Continuous
 62
     7
370
    30
100
AcDbCircle
 10
143.2678280081
 20
130.3647154144
 30
0.0
 40
0.5
100
AcDbArc
 50
180.0
 51
270.0
  0
LINE
  5
360
330
1F
100
AcDbEntity
  8
0
  6
Continuous
 62
     7
370
    30
100
AcDbLine
 10
164.2678278666
 20
129.8647150419
 30
0.0
 11
143.2678281497
 21
129.8647150419
 31
0.0
  0
ARC
  5
361
330
1F
100
AcDbEntity
  8
0
  6
Continuous
 62
     7
370
    30
100
AcDbCircle
 10
164.2678280081
 20
130.3647154144
 30
0.0
 40
0.5
100
AcDbArc
 50
270.0
 51
0.0
  0
LINE
  5
362
330
1F
100
AcDbEntity
  8
0
  6
Continuous
 62
     7
370
    30
100
AcDbLine
 10
164.7678279485
 20
141.6147155709
 30
0.0
 11
164.7678279485
 21
130.3647160551
 31
0.0
  0
ARC
  5
363
330
1F
100
AcDbEntity
  8
0
  6
Continuous
 62
     7
370
    30
100
AcDbCircle
 10
164.2678280081
 20
141.6147154144
 30
0.0
 40
0.5
100
AcDbArc
 50
0.0
 51
90.0
  0
LINE
  5
364
330
1F
100
AcDbEntity
  8
0
  6
Continuous
 62
     7
370
    30
100
AcDbLine
 10
163.2678277027
 20
142.1147156528
 30
0.0
 11
164.2678278666
 21
142.1147156528
 31
0.0
  0
ARC
  5
365
330
1F
100
AcDbEntity
  8
0
  6
Continuous
 62
     7
370
    30
100
AcDbCircle
 10
163.2678280081
 20
141.6147154144
 30
0.0
 40
0.5000000000000419
100
AcDbArc
 50
90.0
 51
135.5729959992
  0
ARC
  5
366
330
1F
100
AcDbEntity
  8
0
  6
Continuous
 62
     7
370
    30
100
AcDbCircle
 10
144.2678280081
 20
141.6147154144
 30
0.0
 40
0.5
100
AcDbArc
 50
44.4270040008
 51
90.0
  0
ARC
  5
367
330
1F
100
AcDbEntity
  8
0
  6
Continuous
 62
     7
370
    30
100
AcDbCircle
 10
163.2678280081
 20
168.1147154144
 30
0.0
 40
0.500000000000022
100
AcDbArc
 50
224.4270040008
 51
270.0
  0
LINE
  5
368
330
1F
100
AcDbEntity
  8
0
  6
Continuous
 62
     7
370
    30
100
AcDbLine
 10
164.2678278666
 20
167.614715176
 30
0.0
 11
163.2678277027
 21
167.614715176
 31
0.0
  0
ARC
  5
369
330
1F
100
AcDbEntity
  8
0
  6
Continuous
 62
     7
370
    30
100
AcDbCircle
 10
164.2678280081
 20
168.1147154144
 30
0.0
 40
0.5
100
AcDbArc
 50
270.0
 51
0.0
  0
LINE
  5
36A
330
1F
100
AcDbEntity
  8
0
  6
Continuous
 62
     7
370
    30
100
AcDbLine
 10
164.7678279485
 20
179.3647147736
 30
0.0
 11
164.7678279485
 21
168.1147152579
 31
0.0
  0
ARC
  5
36B
330
1F
100
AcDbEntity
  8
0
  6
Continuous
 62
     7
370
    30
100
AcDbCircle
 10
164.2678280081
 20
179.3647154144
 30
0.0
 40
0.5
100
AcDbArc
 50
0.0
 51
90.0
  0
LINE
  5
36C
330
1F
100
AcDbEntity
  8
0
  6
Continuous
 62
     7
370
    30
100
AcDbLine
 10
143.2678281497
 20
179.8647157869
 30
0.0
 11
164.2678278666
 21
179.8647157869
 31
0.0
  0
ARC
  5
36D
330
1F
100
AcDbEntity
  8
0
  6
Continuous
 62
     7
370
    30
100
AcDbCircle
 10
143.2678280081
 20
179.3647154144
 30
0.0
 40
0.5
100
AcDbArc
 50
90.0
 51
180.0
  0
LINE
  5
36E
330
1F
100
AcDbEntity
  8
0
  6
Continuous
 62
     7
370
    30
100
AcDbLine
 10
142.7678280677
 20
168.1147152579
 30
0.0
 11
142.7678280677
 21
179.3647147736
 31
0.0
  0
ARC
  5
36F
330
1F
100
AcDbEntity
  8
0
  6
Continuous
 62
     7
370
    30
100
AcDbCircle
 10
143.2678280081
 20
168.1147154144
 30
0.0
 40
0.5
100
AcDbArc
 50
180.0
 51
270.0
  0
LINE
  5
370
330
1F
100
AcDbEntity
  8
0
  6
Continuous
 62
     7
370
    30
100
AcDbLine
 10
144.2678283136
 20
167.614715176
 30
0.0
 11
143.2678281497
 21
167.614715176
 31
0.0
  0
ARC
  5
371
330
1F
100
AcDbEntity
  8
0
  6
Continuous
 62
     7
370
    30
100
AcDbCircle
 10
144.2678280081
 20
168.1147154144
 30
0.0
 40
0.5
100
AcDbArc
 50
270.0
 51
315.5729959992
  0
CIRCLE
  5
372
330
1F
100
AcDbEntity
  8
0
  6
Continuous
 62
     7
370
    30
100
AcDbCircle
 10
163.7678280081
 20
154.8647154144
 30
0.0
 40
2.5
  0
CIRCLE
  5
373
330
1F
100
AcDbEntity
  8
0
  6
Continuous
 62
     7
370
    30
100
AcDbCircle
 10
143.7678280081
 20
154.8647154144
 30
0.0
 40
2.5
  0
LINE
  5
374
330
1F
100
AcDbEntity
  8
0
  6
Continuous
 62
     7
370
    30
100
AcDbLine
 10
169.3178276699
 20
170.8647161743
 30
0.0
 11
169.3178276699
 21
169.8647150791
 31
0.0
  0
ARC
  5
375
330
1F
100
AcDbEntity
  8
0
  6
Continuous
 62
     7
370
    30
100
AcDbCircle
 10
169.8178280081
 20
169.8647154144
 30
0.0
 40
0.5
100
AcDbArc
 50
180.0
 51
270.0
  0
LINE
  5
376
330
1F
100
AcDbEntity
  8
0
  6
Continuous
 62
     7
370
    30
100
AcDbLine
 10
169.8178277518
 20
169.3647149972
 30
0.0
 11
171.8178280797
 21
169.3647149972
 31
0.0
  0
ARC
  5
377
330
1F
100
AcDbEntity
  8
0
  6
Continuous
 62
     7
370
    30
100
AcDbCircle
 10
171.8178280081
 20
168.8647154144
 30
0.0
 40
0.500000000000022
100
AcDbArc
 50
25.8419327632
 51
90.0
  0
ARC
  5
378
330
1F
100
AcDbEntity
  8
0
  6
Continuous
 62
     7
370
    30
100
AcDbCircle
 10
171.8178280081
 20
140.8647154144
 30
0.0
 40
0.5000000000000344
100
AcDbArc
 50
270.0
 51
334.1580672368
  0
LINE
  5
379
330
1F
100
AcDbEntity
  8
0
  6
Continuous
 62
     7
370
    30
100
AcDbLine
 10
171.8178280797
 20
140.3647158316
 30
0.0
 11
169.8178277518
 21
140.3647158316
 31
0.0
  0
ARC
  5
37A
330
1F
100
AcDbEntity
  8
0
  6
Continuous
 62
     7
370
    30
100
AcDbCircle
 10
169.8178280081
 20
139.8647154144
 30
0.0
 40
0.5
100
AcDbArc
 50
90.0
 51
180.0
  0
LINE
  5
37B
330
1F
100
AcDbEntity
  8
0
  6
Continuous
 62
     7
370
    30
100
AcDbLine
 10
169.3178276699
 20
139.8647157497
 30
0.0
 11
169.3178276699
 21
138.8647146544
 31
0.0
  0
ARC
  5
37C
330
1F
100
AcDbEntity
  8
0
  6
Continuous
 62
     7
370
    30
100
AcDbCircle
 10
169.8178280081
 20
138.8647154144
 30
0.0
 40
0.5000000000000147
100
AcDbArc
 50
180.0
 51
264.2608295227
  0
ARC
  5
37D
330
1F
100
AcDbEntity
  8
0
  6
Continuous
 62
     7
370
    30
100
AcDbCircle
 10
170.7678280081
 20
126.3647154144
 30
0.0
 40
3.500000000000008
100
AcDbArc
 50
106.601549599
 51
163.398450401
  0
ARC
  5
37E
330
1F
100
AcDbEntity
  8
0
  6
Continuous
 62
     7
370
    30
100
AcDbCircle
 10
136.7678280081
 20
126.3647154144
 30
0.0
 40
3.500000000000016
100
AcDbArc
 50
16.601549599
 51
73.398450401
  0
ARC
  5
37F
330
1F
100
AcDbEntity
  8
0
  6
Continuous
 62
     7
370
    30
100
AcDbCircle
 10
137.7178280081
 20
151.3647154144
 30
0.0
 40
0.5
100
AcDbArc
 50
275.7391704773
 51
0.0
  0
LINE
  5
380
330
1F
100
AcDbEntity
  8
0
  6
Continuous
 62
     7
370
    30
100
AcDbLine
 10
138.2178283464
 20
158.3647155224
 30
0.0
 11
138.2178283464
 21
151.3647153064
 31
0.0
  0
ARC
  5
381
330
1F
100
AcDbEntity
  8
0
  6
Continuous
 62
     7
370
    30
100
AcDbCircle
 10
137.7178280081
 20
158.3647154144
 30
0.0
 40
0.5
100
AcDbArc
 50
360.0
 51
84.2608295227
  0
ARC
  5
382
330
1F
100
AcDbEntity
  8
0
  6
Continuous
 62
     7
370
    30
100
AcDbCircle
 10
136.7678280081
 20
183.3647154144
 30
0.0
 40
3.500000000000002
100
AcDbArc
 50
286.601549599
 51
343.398450401
  0
ARC
  5
383
330
1F
100
AcDbEntity
  8
0
  6
Continuous
 62
     7
370
    30
100
AcDbCircle
 10
170.7678280081
 20
183.3647154144
 30
0.0
 40
3.499999999999994
100
AcDbArc
 50
196.601549599
 51
253.398450401
  0
ARC
  5
384
330
1F
100
AcDbEntity
  8
0
  6
Continuous
 62
     7
370
    30
100
AcDbCircle
 10
169.8178280081
 20
170.8647154144
 30
0.0
 40
0.5
100
AcDbArc
 50
95.7391704773
 51
180.0
  0
LINE
  5
385
330
1F
100
AcDbEntity
  8
0
  6
Continuous
 62
     7
370
    30
100
AcDbLine
 10
140.5178281646
 20
145.3647157199
 30
0.0
 11
167.0178278517
 21
145.3647157199
 31
0.0
  0
ARC
  5
386
330
1F
100
AcDbEntity
  8
0
  6
Continuous
 62
     7
370
    30
100
AcDbCircle
 10
167.0178280081
 20
146.3647154144
 30
0.0
 40
1.0
100
AcDbArc
 50
270.0
 51
90.0
  0
LINE
  5
387
330
1F
100
AcDbEntity
  8
0
  6
Continuous
 62
     7
370
    30
100
AcDbLine
 10
167.0178278517
 20
147.364715582
 30
0.0
 11
140.5178281646
 21
147.364715582
 31
0.0
  0
ARC
  5
388
330
1F
100
AcDbEntity
  8
0
  6
Continuous
 62
     7
370
    30
100
AcDbCircle
 10
140.5178280081
 20
146.3647154144
 30
0.0
 40
1.0
100
AcDbArc
 50
90.0
 51
270.0
  0
LINE
  5
389
330
1F
100
AcDbEntity
  8
0
  6
Continuous
 62
     7
370
    30
100
AcDbLine
 10
140.5178281646
 20
162.3647152467
 30
0.0
 11
167.0178278517
 21
162.3647152467
 31
0.0
  0
ARC
  5
38A
330
1F
100
AcDbEntity
  8
0
  6
Continuous
 62
     7
370
    30
100
AcDbCircle
 10
167.0178280081
 20
163.3647154144
 30
0.0
 40
1.0
100
AcDbArc
 50
270.0
 51
90.0
  0
LINE
  5
38B
330
1F
100
AcDbEntity
  8
0
  6
Continuous
 62
     7
370
    30
100
AcDbLine
 10
167.0178278517
 20
164.3647151089
 30
0.0
 11
140.5178281646
 21
164.3647151089
 31
0.0
  0
ARC
  5
38C
330
1F
100
AcDbEntity
  8
0
  6
Continuous
 62
     7
370
    30
100
AcDbCircle
 10
140.5178280081
 20
163.3647154144
 30
0.0
 40
1.0
100
AcDbArc
 50
90.0
 51
270.0
  0
SPLINE
  5
38D
330
1F
100
AcDbEntity
  8
0
  6
Continuous
 62
     7
370
    30
100
AcDbSpline
210
0.0
220
0.0
230
1.0
 70
     8
 71
     3
 72
    14
 73
    10
 74
     0
 42
0.00000001
 43
0.00000001
 40
0.0
 40
0.0
 40
0.0
 40
0.0
 40
0.25
 40
0.25
 40
0.5
 40
0.5
 40
0.75
 40
0.75
 40
1.0
 40
1.0
 40
1.0
 40
1.0
 10
140.121929974395
 20
182.3647154143879
 30
0.0
 10
140.1675189989485
 20
182.7527303132873
 30
0.0
 10
140.1989904925404
 20
183.1227110546107
 30
0.0
 10
140.2341504519432
 20
183.7671791468832
 30
0.0
 10
140.2377635787304
 20
184.041198618726
 30
0.0
 10
140.2170561264763
 20
184.4694331220907
 30
0.0
 10
140.192735547435
 20
184.6240656418528
 30
0.0
 10
140.116160683524
 20
184.8214897878612
 30
0.0
 10
140.0638368488568
 20
184.8647154336377
 30
0.0
 10
139.9976852608704
 20
184.8647154336377
 30
0.0
  0
LINE
  5
38E
330
1F
100
AcDbEntity
  8
0
  6
Continuous
 62
     7
370
    30
100
AcDbLine
 10
139.997685438
 20
184.8647147438
 30
0.0
 11
167.5379705783
 21
184.8647147438
 31
0.0
  0
SPLINE
  5
38F
330
1F
100
AcDbEntity
  8
0
  6
Continuous
 62
     7
370
    30
100
AcDbSpline
210
0.0
220
0.0
230
1.0
 70
     8
 71
     3
 72
    14
 73
    10
 74
     0
 42
0.00000001
 43
0.00000001
 40
0.0
 40
0.0
 40
0.0
 40
0.0
 40
0.25
 40
0.25
 40
0.5
 40
0.5
 40
0.75
 40
0.75
 40
1.0
 40
1.0
 40
1.0
 40
1.0
 10
167.5379707554203
 20
184.8647154336377
 30
0.0
 10
167.4680313350396
 20
184.8647154336377
 30
0.0
 10
167.4131521222714
 20
184.7787716036818
 30
0.0
 10
167.3329525666488
 20
184.4811092643891
 30
0.0
 10
167.3077258146797
 20
184.2700349291831
 30
0.0
 10
167.2870183624255
 20
183.7808094767519
 30
0.0
 10
167.2915376621406
 20
183.5030750254424
 30
0.0
 10
167.330322313255
 20
182.9340364027658
 30
0.0
 10
167.3646300860175
 20
182.6426708473924
 30
0.0
 10
167.4137260418957
 20
182.3647154143879
 30
0.0
  0
SPLINE
  5
390
330
1F
100
AcDbEntity
  8
0
  6
Continuous
 62
     7
370
    30
100
AcDbSpline
210
0.0
220
0.0
230
1.0
 70
     8
 71
     3
 72
     9
 73
     5
 74
     0
 42
0.00000001
 43
0.00000001
 40
0.0
 40
0.0
 40
0.0
 40
0.0
 40
0.3362292898535843
 40
1.0
 40
1.0
 40
1.0
 40
1.0
 10
140.2013414706888
 20
183.2319349071809
 30
0.0
 10
140.1875325114602
 20
183.2599175691236
 30
0.0
 10
140.1464624451534
 20
183.3431425075426
 30
0.0
 10
140.0570408642596
 20
183.3561087904654
 30
0.0
 10
139.9976854380074
 20
183.364715429289
 30
0.0
  0
LINE
  5
391
330
1F
100
AcDbEntity
  8
0
  6
Continuous
 62
     7
370
    30
100
AcDbLine
 10
139.997685438
 20
184.8647147438
 30
0.0
 11
139.997685438
 21
183.3647154293
 31
0.0
  0
SPLINE
  5
392
330
1F
100
AcDbEntity
  8
0
  6
Continuous
 62
     7
370
    30
100
AcDbSpline
210
0.0
220
0.0
230
1.0
 70
     8
 71
     3
 72
     9
 73
     5
 74
     0
 42
0.00000001
 43
0.00000001
 40
0.0
 40
0.0
 40
0.0
 40
0.0
 40
0.3362293289711529
 40
1.0
 40
1.0
 40
1.0
 40
1.0
 10
136.9006076063814
 20
129.7982297859022
 30
0.0
 10
136.8726249444132
 20
129.7844204914714
 30
0.0
 10
136.7894000156008
 20
129.7433494329975
 30
0.0
 10
136.7764337266146
 20
129.6539275282768
 30
0.0
 10
136.7678270842733
 20
129.5945718905756
 30
0.0
  0
LINE
  5
393
330
1F
100
AcDbEntity
  8
0
  6
Continuous
 62
     7
370
    30
100
AcDbLine
 10
136.7678270843
 20
129.5945718906
 30
0.0
 11
135.2678277697
 21
129.5945718906
 31
0.0
  0
SPLINE
  5
394
330
1F
100
AcDbEntity
  8
0
  6
Continuous
 62
     7
370
    30
100
AcDbSpline
210
0.0
220
0.0
230
1.0
 70
     8
 71
     3
 72
    14
 73
    10
 74
     0
 42
0.00000001
 43
0.00000001
 40
0.0
 40
0.0
 40
0.0
 40
0.0
 40
0.25
 40
0.25
 40
0.5
 40
0.5
 40
0.75
 40
0.75
 40
1.0
 40
1.0
 40
1.0
 40
1.0
 10
137.7678280081454
 20
129.7188173806375
 30
0.0
 10
137.3798131105208
 20
129.7644064051955
 30
0.0
 10
137.0098323704064
 20
129.7958778987909
 30
0.0
 10
136.3653642802248
 20
129.8310378581982
 30
0.0
 10
136.0913448092623
 20
129.8346509849864
 30
0.0
 10
135.6631103072615
 20
129.8139435327323
 30
0.0
 10
135.5084777879848
 20
129.7896229536899
 30
0.0
 10
135.311053642591
 20
129.7130480897744
 30
0.0
 10
135.2678279969454
 20
129.6607242551039
 30
0.0
 10
135.2678279969454
 20
129.5945726671129
 30
0.0
  0
LINE
  5
395
330
1F
100
AcDbEntity
  8
0
  6
Continuous
 62
     7
370
    30
100
AcDbLine
 10
135.2678277697
 20
150.9634761627
 30
0.0
 11
135.2678277697
 21
129.5945718906
 31
0.0
  0
SPLINE
  5
396
330
1F
100
AcDbEntity
  8
0
  6
Continuous
 62
     7
370
    30
100
AcDbSpline
210
0.0
220
0.0
230
1.0
 70
     8
 71
     3
 72
     8
 73
     4
 74
     0
 42
0.00000001
 43
0.00000001
 40
0.0
 40
0.0
 40
0.0
 40
0.0
 40
1.0
 40
1.0
 40
1.0
 40
1.0
 10
135.2678279969454
 20
150.9634761578923
 30
0.0
 10
135.2678279969454
 20
150.9305544538453
 30
0.0
 10
135.2844746125964
 20
150.8976371184349
 30
0.0
 10
135.3174426927695
 20
150.8647154143879
 30
0.0
  0
LINE
  5
397
330
1F
100
AcDbEntity
  8
0
  6
Continuous
 62
     7
370
    30
100
AcDbLine
 10
135.3174430486
 20
150.8647152244
 30
0.0
 11
137.6842317339
 21
150.8647152244
 31
0.0
  0
SPLINE
  5
398
330
1F
100
AcDbEntity
  8
0
  6
Continuous
 62
     7
370
    30
100
AcDbSpline
210
0.0
220
0.0
230
1.0
 70
     8
 71
     3
 72
     8
 73
     4
 74
     0
 42
0.00000001
 43
0.00000001
 40
0.0
 40
0.0
 40
0.0
 40
0.0
 40
1.0
 40
1.0
 40
1.0
 40
1.0
 10
137.6842315542196
 20
150.8647154143879
 30
0.0
 10
137.7121882786197
 20
150.8649261524796
 30
0.0
 10
137.740059013089
 20
150.8657615801177
 30
0.0
 10
137.7678280081454
 20
150.8672216958346
 30
0.0
  0
SPLINE
  5
399
330
1F
100
AcDbEntity
  8
0
  6
Continuous
 62
     7
370
    30
100
AcDbSpline
210
0.0
220
0.0
230
1.0
 70
     8
 71
     3
 72
     8
 73
     4
 74
     0
 42
0.00000001
 43
0.00000001
 40
0.0
 40
0.0
 40
0.0
 40
0.0
 40
1.0
 40
1.0
 40
1.0
 40
1.0
 10
169.7678280081454
 20
138.3672216958345
 30
0.0
 10
169.7955970029103
 20
138.3657615801199
 30
0.0
 10
169.8234677373798
 20
138.3649261524818
 30
0.0
 10
169.851424462071
 20
138.3647154143879
 30
0.0
  0
LINE
  5
39A
330
1F
100
AcDbEntity
  8
0
  6
Continuous
 62
     7
370
    30
100
AcDbLine
 10
169.8514242824
 20
138.3647155038
 30
0.0
 11
172.2678282466
 21
138.3647155038
 31
0.0
  0
SPLINE
  5
39B
330
1F
100
AcDbEntity
  8
0
  6
Continuous
 62
     7
370
    30
100
AcDbSpline
210
0.0
220
0.0
230
1.0
 70
     8
 71
     3
 72
    14
 73
    10
 74
     0
 42
0.00000001
 43
0.00000001
 40
0.0
 40
0.0
 40
0.0
 40
0.0
 40
0.25
 40
0.25
 40
0.5
 40
0.5
 40
0.75
 40
0.75
 40
1.0
 40
1.0
 40
1.0
 40
1.0
 10
172.2678280193452
 20
129.5945726671129
 30
0.0
 10
172.2678280193452
 20
129.6645120875068
 30
0.0
 10
172.1818841897026
 20
129.7193913002852
 30
0.0
 10
171.8842218514485
 20
129.7995908559211
 30
0.0
 10
171.6731475169648
 20
129.8248176078936
 30
0.0
 10
171.1839220661508
 20
129.8455250601477
 30
0.0
 10
170.9061876157348
 20
129.8410057604293
 30
0.0
 10
170.3371489948297
 20
129.8022211093016
 30
0.0
 10
170.0457834403357
 20
129.7679133365291
 30
0.0
 10
169.7678280081454
 20
129.7188173806375
 30
0.0
  0
LINE
  5
39C
330
1F
100
AcDbEntity
  8
0
  6
Continuous
 62
     7
370
    30
100
AcDbLine
 10
162.7678276207
 20
141.2756163648
 30
0.0
 11
162.7678276207
 21
139.9647155798
 31
0.0
  0
LINE
  5
39D
330
1F
100
AcDbEntity
  8
0
  6
Continuous
 62
     7
370
    30
100
AcDbLine
 10
144.7678283956
 20
139.9647155798
 30
0.0
 11
162.7678276207
 21
139.9647155798
 31
0.0
  0
LINE
  5
39E
330
1F
100
AcDbEntity
  8
0
  6
Continuous
 62
     7
370
    30
100
AcDbLine
 10
144.7678283956
 20
139.9647155798
 30
0.0
 11
144.7678283956
 21
141.2756163648
 31
0.0
  0
SPLINE
  5
39F
330
1F
100
AcDbEntity
  8
0
  6
Continuous
 62
     7
370
    30
100
AcDbSpline
210
0.0
220
0.0
230
1.0
 70
     8
 71
     3
 72
     8
 73
     4
 74
     0
 42
0.00000001
 43
0.00000001
 40
0.0
 40
0.0
 40
0.0
 40
0.0
 40
1.0
 40
1.0
 40
1.0
 40
1.0
 10
144.7678280081454
 20
141.2756165326485
 30
0.0
 10
144.7201669981289
 20
141.4958470432596
 30
0.0
 10
144.6725604395889
 20
141.7301202110231
 30
0.0
 10
144.6248994295725
 20
141.9647154143879
 30
0.0
  0
SPLINE
  5
3A0
330
1F
100
AcDbEntity
  8
0
  6
Continuous
 62
     7
370
    30
100
AcDbSpline
210
0.0
220
0.0
230
1.0
 70
     8
 71
     3
 72
     8
 73
     4
 74
     0
 42
0.00000001
 43
0.00000001
 40
0.0
 40
0.0
 40
0.0
 40
0.0
 40
1.0
 40
1.0
 40
1.0
 40
1.0
 10
162.9107565867182
 20
141.9647154143879
 30
0.0
 10
162.8630955767017
 20
141.7301202110231
 30
0.0
 10
162.8154890181618
 20
141.4958470432595
 30
0.0
 10
162.7678280081454
 20
141.2756165326485
 30
0.0
  0
SPLINE
  5
3A1
330
1F
100
AcDbEntity
  8
0
  6
Continuous
 62
     7
370
    30
100
AcDbSpline
210
0.0
220
0.0
230
1.0
 70
     8
 71
     3
 72
    14
 73
    10
 74
     0
 42
0.00000001
 43
0.00000001
 40
0.0
 40
0.0
 40
0.0
 40
0.0
 40
0.25
 40
0.25
 40
0.5
 40
0.5
 40
0.75
 40
0.75
 40
1.0
 40
1.0
 40
1.0
 40
1.0
 10
167.4137260418957
 20
127.3647154143878
 30
0.0
 10
167.3681370173422
 20
126.9767005154884
 30
0.0
 10
167.3366655237503
 20
126.606719774165
 30
0.0
 10
167.3015055643475
 20
125.9622516818926
 30
0.0
 10
167.2978924375604
 20
125.6882322100498
 30
0.0
 10
167.3185998898145
 20
125.2599977066851
 30
0.0
 10
167.3429204688557
 20
125.1053651869229
 30
0.0
 10
167.4194953327667
 20
124.9079410409146
 30
0.0
 10
167.4718191674339
 20
124.864715395138
 30
0.0
 10
167.5379707554203
 20
124.864715395138
 30
0.0
  0
LINE
  5
3A2
330
1F
100
AcDbEntity
  8
0
  6
Continuous
 62
     7
370
    30
100
AcDbLine
 10
139.997685438
 20
124.8647160849
 30
0.0
 11
167.5379705783
 21
124.8647160849
 31
0.0
  0
SPLINE
  5
3A3
330
1F
100
AcDbEntity
  8
0
  6
Continuous
 62
     7
370
    30
100
AcDbSpline
210
0.0
220
0.0
230
1.0
 70
     8
 71
     3
 72
    14
 73
    10
 74
     0
 42
0.00000001
 43
0.00000001
 40
0.0
 40
0.0
 40
0.0
 40
0.0
 40
0.25
 40
0.25
 40
0.5
 40
0.5
 40
0.75
 40
0.75
 40
1.0
 40
1.0
 40
1.0
 40
1.0
 10
139.9976852608704
 20
124.864715395138
 30
0.0
 10
140.0676246812482
 20
124.864715395138
 30
0.0
 10
140.1225038940144
 20
124.9506592250875
 30
0.0
 10
140.2027034496342
 20
125.2483215643662
 30
0.0
 10
140.2279302016026
 20
125.4593958995647
 30
0.0
 10
140.2486376538567
 20
125.9486213519885
 30
0.0
 10
140.2441183541424
 20
126.2263558032982
 30
0.0
 10
140.2053337030308
 20
126.7953944259855
 30
0.0
 10
140.1710259302703
 20
127.0867599813691
 30
0.0
 10
140.121929974395
 20
127.3647154143878
 30
0.0
  0
SPLINE
  5
3A4
330
1F
100
AcDbEntity
  8
0
  6
Continuous
 62
     7
370
    30
100
AcDbSpline
210
0.0
220
0.0
230
1.0
 70
     8
 71
     3
 72
     9
 73
     5
 74
     0
 42
0.00000001
 43
0.00000001
 40
0.0
 40
0.0
 40
0.0
 40
0.0
 40
0.3362292898535843
 40
1.0
 40
1.0
 40
1.0
 40
1.0
 10
167.3343145456018
 20
126.4974959215948
 30
0.0
 10
167.3481235048305
 20
126.4695132596521
 30
0.0
 10
167.3891935711373
 20
126.3862883212332
 30
0.0
 10
167.478615152031
 20
126.3733220383103
 30
0.0
 10
167.5379705782833
 20
126.3647153994867
 30
0.0
  0
LINE
  5
3A5
330
1F
100
AcDbEntity
  8
0
  6
Continuous
 62
     7
370
    30
100
AcDbLine
 10
167.5379705783
 20
126.3647153995
 30
0.0
 11
167.5379705783
 21
124.8647160849
 31
0.0
  0
SPLINE
  5
3A6
330
1F
100
AcDbEntity
  8
0
  6
Continuous
 62
     7
370
    30
100
AcDbSpline
210
0.0
220
0.0
230
1.0
 70
     8
 71
     3
 72
    11
 73
     7
 74
     0
 42
0.00000001
 43
0.00000001
 40
0.0
 40
0.0
 40
0.0
 40
0.0
 40
0.3339998100735361
 40
0.6475629208832975
 40
0.9428722738369785
 40
1.0
 40
1.0
 40
1.0
 40
1.0
 10
139.9976854380074
 20
126.3647153994867
 30
0.0
 10
140.0302388391131
 20
126.36912716978
 30
0.0
 10
140.0933537717238
 20
126.3776807640374
 30
0.0
 10
140.1631040306955
 20
126.4521322992057
 30
0.0
 10
140.2047409437485
 20
126.5255597132274
 30
0.0
 10
140.2153323587174
 20
126.5834098578664
 30
0.0
 10
140.2170491572323
 20
126.5927869847843
 30
0.0
  0
LINE
  5
3A7
330
1F
100
AcDbEntity
  8
0
  6
Continuous
 62
     7
370
    30
100
AcDbLine
 10
139.997685438
 20
124.8647160849
 30
0.0
 11
139.997685438
 21
126.3647153995
 31
0.0
  0
SPLINE
  5
3A8
330
1F
100
AcDbEntity
  8
0
  6
Continuous
 62
     7
370
    30
100
AcDbSpline
210
0.0
220
0.0
230
1.0
 70
     8
 71
     3
 72
    11
 73
     7
 74
     0
 42
0.00000001
 43
0.00000001
 40
0.0
 40
0.0
 40
0.0
 40
0.0
 40
0.3340001332141885
 40
0.6475616254139328
 40
0.9428721784943332
 40
1.0
 40
1.0
 40
1.0
 40
1.0
 10
170.7678289320173
 20
129.5945718905756
 30
0.0
 10
170.7634161328371
 20
129.6271257281959
 30
0.0
 10
170.7548605691543
 20
129.6902413197977
 30
0.0
 10
170.6804130923092
 20
129.7599907321578
 30
0.0
 10
170.6069827611762
 20
129.8016268589515
 30
0.0
 10
170.5491325955726
 20
129.8122203421331
 30
0.0
 10
170.5397554840746
 20
129.8139374724456
 30
0.0
  0
LINE
  5
3A9
330
1F
100
AcDbEntity
  8
0
  6
Continuous
 62
     7
370
    30
100
AcDbLine
 10
170.767828932
 20
129.5945718906
 30
0.0
 11
172.2678282466
 21
129.5945718906
 31
0.0
  0
SPLINE
  5
3AA
330
1F
100
AcDbEntity
  8
0
  6
Continuous
 62
     7
370
    30
100
AcDbSpline
210
0.0
220
0.0
230
1.0
 70
     8
 71
     3
 72
     8
 73
     4
 74
     0
 42
0.00000001
 43
0.00000001
 40
0.0
 40
0.0
 40
0.0
 40
0.0
 40
1.0
 40
1.0
 40
1.0
 40
1.0
 10
135.3174426927695
 20
158.8647154143879
 30
0.0
 10
135.2844746125964
 20
158.8317937103409
 30
0.0
 10
135.2678279969454
 20
158.7988763749304
 30
0.0
 10
135.2678279969454
 20
158.7659546708834
 30
0.0
  0
LINE
  5
3AB
330
1F
100
AcDbEntity
  8
0
  6
Continuous
 62
     7
370
    30
100
AcDbLine
 10
135.2678277697
 20
180.1348589382
 30
0.0
 11
135.2678277697
 21
158.7659546661
 31
0.0
  0
SPLINE
  5
3AC
330
1F
100
AcDbEntity
  8
0
  6
Continuous
 62
     7
370
    30
100
AcDbSpline
210
0.0
220
0.0
230
1.0
 70
     8
 71
     3
 72
    14
 73
    10
 74
     0
 42
0.00000001
 43
0.00000001
 40
0.0
 40
0.0
 40
0.0
 40
0.0
 40
0.25
 40
0.25
 40
0.5
 40
0.5
 40
0.75
 40
0.75
 40
1.0
 40
1.0
 40
1.0
 40
1.0
 10
135.2678279969454
 20
180.1348581616628
 30
0.0
 10
135.2678279969454
 20
180.0649187412723
 30
0.0
 10
135.3537718265799
 20
180.0100395284964
 30
0.0
 10
135.6514341648162
 20
179.9298399728638
 30
0.0
 10
135.8625084992902
 20
179.9046132208921
 30
0.0
 10
136.3517339500948
 20
179.883905768638
 30
0.0
 10
136.6294684005111
 20
179.8884250683556
 30
0.0
 10
137.1985070214297
 20
179.9272097194799
 30
0.0
 10
137.4898725759369
 20
179.96151749225
 30
0.0
 10
137.7678280081454
 20
180.0106134481382
 30
0.0
  0
SPLINE
  5
3AD
330
1F
100
AcDbEntity
  8
0
  6
Continuous
 62
     7
370
    30
100
AcDbSpline
210
0.0
220
0.0
230
1.0
 70
     8
 71
     3
 72
     8
 73
     4
 74
     0
 42
0.00000001
 43
0.00000001
 40
0.0
 40
0.0
 40
0.0
 40
0.0
 40
1.0
 40
1.0
 40
1.0
 40
1.0
 10
137.7678280081454
 20
158.8622091329412
 30
0.0
 10
137.7400590128669
 20
158.8636692486712
 30
0.0
 10
137.7121882783977
 20
158.8645046763094
 30
0.0
 10
137.6842315542196
 20
158.8647154143879
 30
0.0
  0
LINE
  5
3AE
330
1F
100
AcDbEntity
  8
0
  6
Continuous
 62
     7
370
    30
100
AcDbLine
 10
137.6842317339
 20
158.8647156044
 30
0.0
 11
135.3174430486
 21
158.8647156044
 31
0.0
  0
SPLINE
  5
3AF
330
1F
100
AcDbEntity
  8
0
  6
Continuous
 62
     7
370
    30
100
AcDbSpline
210
0.0
220
0.0
230
1.0
 70
     8
 71
     3
 72
     8
 73
     4
 74
     0
 42
0.00000001
 43
0.00000001
 40
0.0
 40
0.0
 40
0.0
 40
0.0
 40
1.0
 40
1.0
 40
1.0
 40
1.0
 10
144.6248994295725
 20
167.7647154143879
 30
0.0
 10
144.6725604395889
 20
167.9993106177526
 30
0.0
 10
144.7201669981289
 20
168.2335837855162
 30
0.0
 10
144.7678280081454
 20
168.4538142961272
 30
0.0
  0
LINE
  5
3B0
330
1F
100
AcDbEntity
  8
0
  6
Continuous
 62
     7
370
    30
100
AcDbLine
 10
144.7678283956
 20
168.453814464
 30
0.0
 11
144.7678283956
 21
169.764715249
 31
0.0
  0
LINE
  5
3B1
330
1F
100
AcDbEntity
  8
0
  6
Continuous
 62
     7
370
    30
100
AcDbLine
 10
144.7678283956
 20
169.764715249
 30
0.0
 11
162.7678276207
 21
169.764715249
 31
0.0
  0
LINE
  5
3B2
330
1F
100
AcDbEntity
  8
0
  6
Continuous
 62
     7
370
    30
100
AcDbLine
 10
162.7678276207
 20
169.764715249
 30
0.0
 11
162.7678276207
 21
168.453814464
 31
0.0
  0
SPLINE
  5
3B3
330
1F
100
AcDbEntity
  8
0
  6
Continuous
 62
     7
370
    30
100
AcDbSpline
210
0.0
220
0.0
230
1.0
 70
     8
 71
     3
 72
     8
 73
     4
 74
     0
 42
0.00000001
 43
0.00000001
 40
0.0
 40
0.0
 40
0.0
 40
0.0
 40
1.0
 40
1.0
 40
1.0
 40
1.0
 10
162.7678280081454
 20
168.4538142961272
 30
0.0
 10
162.8154890181618
 20
168.2335837855161
 30
0.0
 10
162.8630955767018
 20
167.9993106177526
 30
0.0
 10
162.9107565867182
 20
167.7647154143879
 30
0.0
  0
SPLINE
  5
3B4
330
1F
100
AcDbEntity
  8
0
  6
Continuous
 62
     7
370
    30
100
AcDbSpline
210
0.0
220
0.0
230
1.0
 70
     8
 71
     3
 72
     8
 73
     4
 74
     0
 42
0.00000001
 43
0.00000001
 40
0.0
 40
0.0
 40
0.0
 40
0.0
 40
1.0
 40
1.0
 40
1.0
 40
1.0
 10
169.851424462071
 20
171.3647154143879
 30
0.0
 10
169.8234677376363
 20
171.3645046763074
 30
0.0
 10
169.7955970031669
 20
171.3636692486693
 30
0.0
 10
169.7678280081454
 20
171.3622091329412
 30
0.0
  0
SPLINE
  5
3B5
330
1F
100
AcDbEntity
  8
0
  6
Continuous
 62
     7
370
    30
100
AcDbSpline
210
0.0
220
0.0
230
1.0
 70
     8
 71
     3
 72
    14
 73
    10
 74
     0
 42
0.00000001
 43
0.00000001
 40
0.0
 40
0.0
 40
0.0
 40
0.0
 40
0.25
 40
0.25
 40
0.5
 40
0.5
 40
0.75
 40
0.75
 40
1.0
 40
1.0
 40
1.0
 40
1.0
 10
169.7678280081454
 20
180.0106134481382
 30
0.0
 10
170.1558429057845
 20
179.9650244235785
 30
0.0
 10
170.5258236459091
 20
179.9335529299819
 30
0.0
 10
171.1702917360997
 20
179.8983929705729
 30
0.0
 10
171.444311207061
 20
179.8947798437842
 30
0.0
 10
171.8725457090532
 20
179.9154872960383
 30
0.0
 10
172.0271782283228
 20
179.9398078750811
 30
0.0
 10
172.2246023737044
 20
180.0163827389983
 30
0.0
 10
172.2678280193452
 20
180.0687065736702
 30
0.0
 10
172.2678280193452
 20
180.1348581616628
 30
0.0
  0
LINE
  5
3B6
330
1F
100
AcDbEntity
  8
0
  6
Continuous
 62
     7
370
    30
100
AcDbLine
 10
172.2678282466
 20
171.364715325
 30
0.0
 11
169.8514242824
 21
171.364715325
 31
0.0
  0
SPLINE
  5
3B7
330
1F
100
AcDbEntity
  8
0
  6
Continuous
 62
     7
370
    30
100
AcDbSpline
210
0.0
220
0.0
230
1.0
 70
     8
 71
     3
 72
    11
 73
     7
 74
     0
 42
0.00000001
 43
0.00000001
 40
0.0
 40
0.0
 40
0.0
 40
0.0
 40
0.3340001332141885
 40
0.6475616254139328
 40
0.9428721784943332
 40
1.0
 40
1.0
 40
1.0
 40
1.0
 10
136.7678270842733
 20
180.1348589382002
 30
0.0
 10
136.7722398834536
 20
180.1023051005798
 30
0.0
 10
136.7807954471363
 20
180.0391895089781
 30
0.0
 10
136.8552429239815
 20
179.9694400966179
 30
0.0
 10
136.9286732551145
 20
179.9278039698242
 30
0.0
 10
136.9865234207181
 20
179.9172104866427
 30
0.0
 10
136.9959005322161
 20
179.9154933563301
 30
0.0
  0
LINE
  5
3B8
330
1F
100
AcDbEntity
  8
0
  6
Continuous
 62
     7
370
    30
100
AcDbLine
 10
135.2678277697
 20
180.1348589382
 30
0.0
 11
136.7678270843
 21
180.1348589382
 31
0.0
  0
SPLINE
  5
3B9
330
1F
100
AcDbEntity
  8
0
  6
Continuous
 62
     7
370
    30
100
AcDbSpline
210
0.0
220
0.0
230
1.0
 70
     8
 71
     3
 72
     9
 73
     5
 74
     0
 42
0.00000001
 43
0.00000001
 40
0.0
 40
0.0
 40
0.0
 40
0.0
 40
0.3362293289711529
 40
1.0
 40
1.0
 40
1.0
 40
1.0
 10
170.6350484099092
 20
179.9312010428735
 30
0.0
 10
170.6630310718775
 20
179.9450103373044
 30
0.0
 10
170.7462560006898
 20
179.9860813957782
 30
0.0
 10
170.7592222896762
 20
180.075503300499
 30
0.0
 10
170.7678289320173
 20
180.1348589382002
 30
0.0
  0
LINE
  5
3BA
330
1F
100
AcDbEntity
  8
0
  6
Continuous
 62
     7
370
    30
100
AcDbLine
 10
170.767828932
 20
180.1348589382
 30
0.0
 11
172.2678282466
 21
180.1348589382
 31
0.0
  0
SPLINE
  5
3BB
330
1F
100
AcDbEntity
  8
0
  6
Continuous
 62
     7
370
    30
100
AcDbSpline
210
0.0
220
0.0
230
1.0
 70
     8
 71
     3
 72
    11
 73
     7
 74
     0
 42
0.00000001
 43
0.00000001
 40
0.0
 40
0.0
 40
0.0
 40
0.0
 40
0.3339998100735361
 40
0.6475629208832975
 40
0.9428722738369785
 40
1.0
 40
1.0
 40
1.0
 40
1.0
 10
167.5379705782833
 20
183.364715429289
 30
0.0
 10
167.5054171771775
 20
183.3603036589957
 30
0.0
 10
167.4423022445669
 20
183.3517500647383
 30
0.0
 10
167.3725519855952
 20
183.27729852957
 30
0.0
 10
167.3309150725422
 20
183.2038711155484
 30
0.0
 10
167.3203236575733
 20
183.1460209709093
 30
0.0
 10
167.3186068590584
 20
183.1366438439914
 30
0.0
  0
LINE
  5
3BC
330
1F
100
AcDbEntity
  8
0
  6
Continuous
 62
     7
370
    30
100
AcDbLine
 10
167.5379705783
 20
183.3647154293
 30
0.0
 11
167.5379705783
 21
184.8647147438
 31
0.0
  0
SPLINE
  5
3BD
330
1F
100
AcDbEntity
  8
0
  6
Continuous
 62
     7
370
    30
100
AcDbSpline
210
0.0
220
0.0
230
1.0
 70
     8
 71
     3
 72
     8
 73
     4
 74
     0
 42
0.00000001
 43
0.00000001
 40
0.0
 40
0.0
 40
0.0
 40
0.0
 40
1.0
 40
1.0
 40
1.0
 40
1.0
 10
136.7678279969454
 20
150.9634761578923
 30
0.0
 10
136.7678279969454
 20
150.9305559100575
 30
0.0
 10
136.774487226556
 20
150.8976356622227
 30
0.0
 10
136.7876738754084
 20
150.8647154143879
 30
0.0
  0
SPLINE
  5
3BE
330
1F
100
AcDbEntity
  8
0
  6
Continuous
 62
     7
370
    30
100
AcDbSpline
210
0.0
220
0.0
230
1.0
 70
     8
 71
     3
 72
     8
 73
     4
 74
     0
 42
0.00000001
 43
0.00000001
 40
0.0
 40
0.0
 40
0.0
 40
0.0
 40
1.0
 40
1.0
 40
1.0
 40
1.0
 10
136.7876738754084
 20
158.8647154143879
 30
0.0
 10
136.774487226556
 20
158.831795166553
 30
0.0
 10
136.7678279969454
 20
158.7988749187182
 30
0.0
 10
136.7678279969454
 20
158.7659546708834
 30
0.0
  0
LINE
  5
3BF
330
1F
100
AcDbEntity
  8
0
  6
Continuous
 62
     7
370
    30
100
AcDbLine
 10
136.7678270843
 20
150.9634761627
 30
0.0
 11
135.2678277697
 21
150.9634761627
 31
0.0
  0
LINE
  5
3C0
330
1F
100
AcDbEntity
  8
0
  6
Continuous
 62
     7
370
    30
100
AcDbLine
 10
135.2678277697
 20
158.7659546661
 30
0.0
 11
136.7678270843
 21
158.7659546661
 31
0.0
  0
LINE
  5
3C1
330
1F
100
AcDbEntity
  8
0
  6
Continuous
 62
     7
370
    30
100
AcDbLine
 10
135.8928271737
 20
126.3647153995
 30
0.0
 11
139.997685438
 21
126.3647153995
 31
0.0
  0
LINE
  5
3C2
330
1F
100
AcDbEntity
  8
0
  6
Continuous
 62
     7
370
    30
100
AcDbLine
 10
135.8928271737
 20
124.8647160849
 30
0.0
 11
139.997685438
 21
124.8647160849
 31
0.0
  0
LINE
  5
3C3
330
1F
100
AcDbEntity
  8
0
  6
Continuous
 62
     7
370
    30
100
AcDbLine
 10
167.5379705783
 20
124.8647160849
 30
0.0
 11
171.6428288426
 21
124.8647160849
 31
0.0
  0
LINE
  5
3C4
330
1F
100
AcDbEntity
  8
0
  6
Continuous
 62
     7
370
    30
100
AcDbLine
 10
167.5379705783
 20
126.3647153995
 30
0.0
 11
171.6428288426
 21
126.3647153995
 31
0.0
  0
LINE
  5
3C5
330
1F
100
AcDbEntity
  8
0
  6
Continuous
 62
     7
370
    30
100
AcDbLine
 10
135.2678277697
 20
129.5945718906
 30
0.0
 11
135.2678277697
 21
127.2397153101
 31
0.0
  0
LINE
  5
3C6
330
1F
100
AcDbEntity
  8
0
  6
Continuous
 62
     7
370
    30
100
AcDbLine
 10
136.7678270843
 20
129.5945718906
 30
0.0
 11
136.7678270843
 21
127.2397153101
 31
0.0
  0
LINE
  5
3C7
330
1F
100
AcDbEntity
  8
0
  6
Continuous
 62
     7
370
    30
100
AcDbLine
 10
170.767828932
 20
127.2397153101
 30
0.0
 11
170.767828932
 21
129.5945718906
 31
0.0
  0
LINE
  5
3C8
330
1F
100
AcDbEntity
  8
0
  6
Continuous
 62
     7
370
    30
100
AcDbLine
 10
135.2678277697
 20
150.9634761627
 30
0.0
 11
135.2678277697
 21
151.3647153064
 31
0.0
  0
LINE
  5
3C9
330
1F
100
AcDbEntity
  8
0
  6
Continuous
 62
     7
370
    30
100
AcDbLine
 10
136.7678270843
 20
150.9634761627
 30
0.0
 11
136.7678270843
 21
151.3647153064
 31
0.0
  0
LINE
  5
3CA
330
1F
100
AcDbEntity
  8
0
  6
Continuous
 62
     7
370
    30
100
AcDbLine
 10
135.2678277697
 20
158.3647155224
 30
0.0
 11
135.2678277697
 21
158.7659546661
 31
0.0
  0
LINE
  5
3CB
330
1F
100
AcDbEntity
  8
0
  6
Continuous
 62
     7
370
    30
100
AcDbLine
 10
136.7678270843
 20
158.3647155224
 30
0.0
 11
136.7678270843
 21
158.7659546661
 31
0.0
  0
LINE
  5
3CC
330
1F
100
AcDbEntity
  8
0
  6
Continuous
 62
     7
370
    30
100
AcDbLine
 10
170.767828932
 20
180.1348589382
 30
0.0
 11
170.767828932
 21
182.4897155187
 31
0.0
  0
LINE
  5
3CD
330
1F
100
AcDbEntity
  8
0
  6
Continuous
 62
     7
370
    30
100
AcDbLine
 10
135.2678277697
 20
182.4897155187
 30
0.0
 11
135.2678277697
 21
180.1348589382
 31
0.0
  0
LINE
  5
3CE
330
1F
100
AcDbEntity
  8
0
  6
Continuous
 62
     7
370
    30
100
AcDbLine
 10
136.7678270843
 20
182.4897155187
 30
0.0
 11
136.7678270843
 21
180.1348589382
 31
0.0
  0
LINE
  5
3CF
330
1F
100
AcDbEntity
  8
0
  6
Continuous
 62
     7
370
    30
100
AcDbLine
 10
171.6428288426
 20
184.8647147438
 30
0.0
 11
167.5379705783
 21
184.8647147438
 31
0.0
  0
LINE
  5
3D0
330
1F
100
AcDbEntity
  8
0
  6
Continuous
 62
     7
370
    30
100
AcDbLine
 10
171.6428288426
 20
183.3647154293
 30
0.0
 11
167.5379705783
 21
183.3647154293
 31
0.0
  0
LINE
  5
3D1
330
1F
100
AcDbEntity
  8
0
  6
Continuous
 62
     7
370
    30
100
AcDbLine
 10
139.997685438
 20
183.3647154293
 30
0.0
 11
135.8928271737
 21
183.3647154293
 31
0.0
  0
LINE
  5
3D2
330
1F
100
AcDbEntity
  8
0
  6
Continuous
 62
     7
370
    30
100
AcDbLine
 10
139.997685438
 20
184.8647147438
 30
0.0
 11
135.8928271737
 21
184.8647147438
 31
0.0
  0
LINE
  5
3D3
330
1F
100
AcDbEntity
  8
0
  6
Continuous
 62
     7
370
    30
100
AcDbLine
 10
135.2678277697
 20
151.3647153064
 30
0.0
 11
135.2678277697
 21
158.3647155224
 31
0.0
  0
LINE
  5
3D4
330
1F
100
AcDbEntity
  8
0
  6
Continuous
 62
     7
370
    30
100
AcDbLine
 10
136.7678270843
 20
151.3647153064
 30
0.0
 11
136.7678270843
 21
158.3647155224
 31
0.0
  0
LINE
  5
3D5
330
1F
100
AcDbEntity
  8
0
  6
Continuous
 62
     7
370
    30
100
AcDbLine
 10
135.2678277697
 20
126.3647153995
 30
0.0
 11
135.2678277697
 21
124.8647160849
 31
0.0
  0
LINE
  5
3D6
330
1F
100
AcDbEntity
  8
0
  6
Continuous
 62
     7
370
    30
100
AcDbLine
 10
135.2678277697
 20
124.8647160849
 30
0.0
 11
135.8928271737
 21
124.8647160849
 31
0.0
  0
LINE
  5
3D7
330
1F
100
AcDbEntity
  8
0
  6
Continuous
 62
     7
370
    30
100
AcDbLine
 10
135.2678277697
 20
126.3647153995
 30
0.0
 11
135.8928271737
 21
126.3647153995
 31
0.0
  0
LINE
  5
3D8
330
1F
100
AcDbEntity
  8
0
  6
Continuous
 62
     7
370
    30
100
AcDbLine
 10
171.6428288426
 20
124.8647160849
 30
0.0
 11
172.2678282466
 21
124.8647160849
 31
0.0
  0
LINE
  5
3D9
330
1F
100
AcDbEntity
  8
0
  6
Continuous
 62
     7
370
    30
100
AcDbLine
 10
171.6428288426
 20
126.3647153995
 30
0.0
 11
172.2678282466
 21
126.3647153995
 31
0.0
  0
LINE
  5
3DA
330
1F
100
AcDbEntity
  8
0
  6
Continuous
 62
     7
370
    30
100
AcDbLine
 10
172.2678282466
 20
184.8647147438
 30
0.0
 11
171.6428288426
 21
184.8647147438
 31
0.0
  0
LINE
  5
3DB
330
1F
100
AcDbEntity
  8
0
  6
Continuous
 62
     7
370
    30
100
AcDbLine
 10
172.2678282466
 20
183.3647154293
 30
0.0
 11
171.6428288426
 21
183.3647154293
 31
0.0
  0
LINE
  5
3DC
330
1F
100
AcDbEntity
  8
0
  6
Continuous
 62
     7
370
    30
100
AcDbLine
 10
135.2678277697
 20
183.3647154293
 30
0.0
 11
135.2678277697
 21
184.8647147438
 31
0.0
  0
LINE
  5
3DD
330
1F
100
AcDbEntity
  8
0
  6
Continuous
 62
     7
370
    30
100
AcDbLine
 10
135.8928271737
 20
184.8647147438
 30
0.0
 11
135.2678277697
 21
184.8647147438
 31
0.0
  0
LINE
  5
3DE
330
1F
100
AcDbEntity
  8
0
  6
Continuous
 62
     7
370
    30
100
AcDbLine
 10
135.8928271737
 20
183.3647154293
 30
0.0
 11
135.2678277697
 21
183.3647154293
 31
0.0
  0
LINE
  5
3DF
330
1F
100
AcDbEntity
  8
0
  6
Continuous
 62
     7
370
    30
100
AcDbLine
 10
170.767828932
 20
126.8647145501
 30
0.0
 11
172.2678282466
 21
126.8647145501
 31
0.0
  0
LINE
  5
3E0
330
1F
100
AcDbEntity
  8
0
  6
Continuous
 62
     7
370
    30
100
AcDbLine
 10
170.767828932
 20
126.8647145501
 30
0.0
 11
170.767828932
 21
127.2397153101
 31
0.0
  0
LINE
  5
3E1
330
1F
100
AcDbEntity
  8
0
  6
Continuous
 62
     7
370
    30
100
AcDbLine
 10
136.7678270843
 20
126.8647145501
 30
0.0
 11
135.2678277697
 21
126.8647145501
 31
0.0
  0
LINE
  5
3E2
330
1F
100
AcDbEntity
  8
0
  6
Continuous
 62
     7
370
    30
100
AcDbLine
 10
135.2678277697
 20
127.2397153101
 30
0.0
 11
135.2678277697
 21
126.8647145501
 31
0.0
  0
LINE
  5
3E3
330
1F
100
AcDbEntity
  8
0
  6
Continuous
 62
     7
370
    30
100
AcDbLine
 10
136.7678270843
 20
127.2397153101
 30
0.0
 11
136.7678270843
 21
126.8647145501
 31
0.0
  0
LINE
  5
3E4
330
1F
100
AcDbEntity
  8
0
  6
Continuous
 62
     7
370
    30
100
AcDbLine
 10
170.767828932
 20
182.8647162787
 30
0.0
 11
172.2678282466
 21
182.8647162787
 31
0.0
  0
LINE
  5
3E5
330
1F
100
AcDbEntity
  8
0
  6
Continuous
 62
     7
370
    30
100
AcDbLine
 10
170.767828932
 20
182.4897155187
 30
0.0
 11
170.767828932
 21
182.8647162787
 31
0.0
  0
LINE
  5
3E6
330
1F
100
AcDbEntity
  8
0
  6
Continuous
 62
     7
370
    30
100
AcDbLine
 10
136.7678270843
 20
182.8647162787
 30
0.0
 11
135.2678277697
 21
182.8647162787
 31
0.0
  0
LINE
  5
3E7
330
1F
100
AcDbEntity
  8
0
  6
Continuous
 62
     7
370
    30
100
AcDbLine
 10
135.2678277697
 20
182.8647162787
 30
0.0
 11
135.2678277697
 21
182.4897155187
 31
0.0
  0
LINE
  5
3E8
330
1F
100
AcDbEntity
  8
0
  6
Continuous
 62
     7
370
    30
100
AcDbLine
 10
136.7678270843
 20
182.8647162787
 30
0.0
 11
136.7678270843
 21
182.4897155187
 31
0.0
  0
LINE
  5
3E9
330
1F
100
AcDbEntity
  8
0
  6
Continuous
 62
     7
370
    30
100
AcDbLine
 10
137.2678280976
 20
157.4647154215
 30
0.0
 11
136.7987320926
 21
157.4647154215
 31
0.0
  0
LINE
  5
3EA
330
1F
100
AcDbEntity
  8
0
  6
Continuous
 62
     7
370
    30
100
AcDbLine
 10
136.7987320926
 20
152.2647154073
 30
0.0
 11
137.2678280976
 21
152.2647154073
 31
0.0
  0
ARC
  5
3EB
330
1F
100
AcDbEntity
  8
0
  6
Continuous
 62
     7
370
    30
100
AcDbCircle
 10
141.6565451544
 20
156.1775428325
 30
0.0
 40
0.5000000000000018
100
AcDbArc
 50
0.0
 51
53.9503238249
  0
LINE
  5
3EC
330
1F
100
AcDbEntity
  8
0
  6
Continuous
 62
     7
370
    30
100
AcDbLine
 10
142.1565451827
 20
153.5518879558
 30
0.0
 11
142.1565451827
 21
156.177542873
 31
0.0
  0
ARC
  5
3ED
330
1F
100
AcDbEntity
  8
0
  6
Continuous
 62
     7
370
    30
100
AcDbCircle
 10
141.6565451544
 20
153.5518879963
 30
0.0
 40
0.5
100
AcDbArc
 50
306.0496761751
 51
0.0
  0
LINE
  5
3EE
330
1F
100
AcDbEntity
  8
0
  6
Continuous
 62
     7
370
    30
100
AcDbLine
 10
137.2678280976
 20
152.2647154073
 30
0.0
 11
138.2178283464
 21
152.2647154073
 31
0.0
  0
LINE
  5
3EF
330
1F
100
AcDbEntity
  8
0
  6
Continuous
 62
     7
370
    30
100
AcDbLine
 10
138.2178283464
 20
157.4647154215
 30
0.0
 11
137.2678280976
 21
157.4647154215
 31
0.0
  0
LINE
  5
3F0
330
1F
100
AcDbEntity
  8
0
  6
Continuous
 62
     8
370
     0
100
AcDbLine
 10
159.9678281862
 20
134.4147156945
 30
0.0
 11
147.517827915
 21
134.4147156945
 31
0.0
  0
LINE
  5
3F1
330
1F
100
AcDbEntity
  8
0
  6
Continuous
 62
     8
370
     0
100
AcDbLine
 10
147.517827915
 20
134.6147153548
 30
0.0
 11
147.517827915
 21
134.4147156945
 31
0.0
  0
ARC
  5
3F2
330
1F
100
AcDbEntity
  8
0
  6
Continuous
 62
     8
370
     0
100
AcDbCircle
 10
147.5178280081
 20
135.6147154144
 30
0.0
 40
1.199999999999989
100
AcDbArc
 50
90.0
 51
270.0
  0
LINE
  5
3F3
330
1F
100
AcDbEntity
  8
0
  6
Continuous
 62
     8
370
     0
100
AcDbLine
 10
147.517827915
 20
136.8147153429
 30
0.0
 11
147.517827915
 21
136.6147156826
 31
0.0
  0
LINE
  5
3F4
330
1F
100
AcDbEntity
  8
0
  6
Continuous
 62
     8
370
     0
100
AcDbLine
 10
147.517827915
 20
136.8147153429
 30
0.0
 11
153.7678280081
 21
136.8147153429
 31
0.0
  0
LINE
  5
3F5
330
1F
100
AcDbEntity
  8
0
  6
Continuous
 62
     8
370
     0
100
AcDbLine
 10
160.0178281013
 20
175.3147151342
 30
0.0
 11
160.0178281013
 21
175.114715474
 31
0.0
  0
ARC
  5
3F6
330
1F
100
AcDbEntity
  8
0
  6
Continuous
 62
     8
370
     0
100
AcDbCircle
 10
160.0178280081
 20
174.1147154144
 30
0.0
 40
1.199999999999978
100
AcDbArc
 50
347.9753008194
 51
90.0
  0
LINE
  5
3F7
330
1F
100
AcDbEntity
  8
0
  6
Continuous
 62
     8
370
     0
100
AcDbLine
 10
147.517827915
 20
173.1147151462
 30
0.0
 11
147.517827915
 21
172.9147154859
 31
0.0
  0
ARC
  5
3F8
330
1F
100
AcDbEntity
  8
0
  6
Continuous
 62
     8
370
     0
100
AcDbCircle
 10
147.5178280081
 20
174.1147154144
 30
0.0
 40
1.200000000000017
100
AcDbArc
 50
90.0
 51
270.0
  0
LINE
  5
3F9
330
1F
100
AcDbEntity
  8
0
  6
Continuous
 62
     8
370
     0
100
AcDbLine
 10
147.517827915
 20
175.3147151342
 30
0.0
 11
147.517827915
 21
175.114715474
 31
0.0
  0
LINE
  5
3FA
330
1F
100
AcDbEntity
  8
0
  6
Continuous
 62
     8
370
     0
100
AcDbLine
 10
153.7678280081
 20
172.9147154859
 30
0.0
 11
147.517827915
 21
172.9147154859
 31
0.0
  0
LINE
  5
3FB
330
1F
100
AcDbEntity
  8
0
  6
Continuous
 62
     8
370
     0
100
AcDbLine
 10
147.517827915
 20
175.3147151342
 30
0.0
 11
160.0178281013
 21
175.3147151342
 31
0.0
  0
SPLINE
  5
3FC
330
1F
100
AcDbEntity
  8
0
  6
Continuous
 62
     8
370
     0
100
AcDbSpline
210
0.0
220
0.0
230
1.0
 70
     8
 71
     3
 72
    12
 73
     8
 74
     0
 42
0.00000001
 43
0.00000001
 40
0.0
 40
0.0
 40
0.0
 40
0.0
 40
0.1364237554969069
 40
0.2724465265988026
 40
0.4494427026643627
 40
0.6927819628727826
 40
1.0
 40
1.0
 40
1.0
 40
1.0
 10
181.3119054939451
 20
142.8293176016637
 30
0.0
 10
181.3108057605889
 20
142.7865951350758
 30
0.0
 10
181.3086095262748
 20
142.7012757741827
 30
0.0
 10
181.3488126097333
 20
142.5740250803919
 30
0.0
 10
181.430738979283
 20
142.4518040869036
 30
0.0
 10
181.5723972419898
 20
142.3493422887282
 30
0.0
 10
181.6931890930267
 20
142.3355426694145
 30
0.0
 10
181.7605924960079
 20
142.3278423047492
 30
0.0
  0
ARC
  5
3FD
330
1F
100
AcDbEntity
  8
0
  6
Continuous
 62
     8
370
     0
100
AcDbCircle
 10
181.3283139953
 20
142.2911654267
 30
0.0
 40
0.4338316442164776
100
AcDbArc
 50
280.5843213784
 51
4.8496731194
  0
SPLINE
  5
3FE
330
1F
100
AcDbEntity
  8
0
  6
Continuous
 62
     8
370
     0
100
AcDbSpline
210
0.0
220
0.0
230
1.0
 70
     8
 71
     3
 72
    12
 73
     8
 74
     0
 42
0.00000001
 43
0.00000001
 40
0.0
 40
0.0
 40
0.0
 40
0.0
 40
0.2787255474156334
 40
0.5127444617462655
 40
0.6962918477028766
 40
0.8459549566578298
 40
1.0
 40
1.0
 40
1.0
 40
1.0
 10
181.4080012198391
 20
141.864715146167
 30
0.0
 10
181.339848051945
 20
141.8809555118372
 30
0.0
 10
181.2144732532865
 20
141.9108313435697
 30
0.0
 10
181.0739838438218
 20
142.1210724807309
 30
0.0
 10
180.9945415528803
 20
142.3631834319563
 30
0.0
 10
180.9558797592177
 20
142.6126010223418
 30
0.0
 10
180.9581077706254
 20
142.7798727426182
 30
0.0
 10
180.9592378493252
 20
142.8647153100797
 30
0.0
  0
LWPOLYLINE
  5
3FF
330
1F
100
AcDbEntity
  8
0
  6
Continuous
 62
     8
370
     0
100
AcDbPolyline
 90
        9
 70
   128
 43
0.0
 10
181.3119054939
 20
142.8293176017
 10
181.275691947
 20
142.8329516223
 10
181.236412486
 20
142.8368948421
 10
181.1944452282
 20
142.8411072141
 10
181.1501999553
 20
142.8455477602
 10
181.1041032132
 20
142.8501745707
 10
181.0566020366
 20
142.8549429423
 10
181.0081564989
 20
142.8598053775
 10
180.9592378493
 20
142.8647153101
  0
LINE
  5
400
330
1F
100
AcDbEntity
  8
0
  6
Continuous
 62
     8
370
     0
100
AcDbLine
 10
175.2678287383
 20
142.8647153101
 30
0.0
 11
180.9592378493
 21
142.8647153101
 31
0.0
  0
LINE
  5
401
330
1F
100
AcDbEntity
  8
0
  6
Continuous
 62
     8
370
     0
100
AcDbLine
 10
180.9592378493
 20
166.8647155187
 30
0.0
 11
175.2678287383
 21
166.8647155187
 31
0.0
  0
ELLIPSE
  5
402
330
1F
100
AcDbEntity
  8
0
  6
Continuous
 62
     8
370
     0
100
AcDbEllipse
 10
-58.1484775953
 20
154.8647154144
 30
0.0
 11
-239.7091988222402
 21
0.0
 31
-3.019806626980426E-14
210
-1.259779199887863E-16
220
0.0
230
1.0
 40
0.7071067812
 41
3.070736919344289
 42
3.212448387835316
  0
ELLIPSE
  5
403
330
1F
100
AcDbEntity
  8
0
  6
Continuous
 62
     8
370
     0
100
AcDbEllipse
 10
-58.1484775953
 20
154.8647154144
 30
0.0
 11
240.0627522128335
 21
0.0
 31
0.0
210
0.0
220
0.0
230
1.0
 40
0.7081481756
 41
6.212329572934101
 42
6.354041041425109
  0
LWPOLYLINE
  5
404
330
1F
100
AcDbEntity
  8
0
  6
Continuous
 62
     8
370
     0
100
AcDbPolyline
 90
        9
 70
   128
 43
0.0
 10
181.3119054939
 20
166.9001132271
 10
181.275691947
 20
166.8964792064
 10
181.236412486
 20
166.8925359866
 10
181.1944452282
 20
166.8883236146
 10
181.1501999553
 20
166.8838830686
 10
181.1041032132
 20
166.8792562581
 10
181.0566020366
 20
166.8744878865
 10
181.0081564989
 20
166.8696254513
 10
180.9592378493
 20
166.8647155187
  0
SPLINE
  5
405
330
1F
100
AcDbEntity
  8
0
  6
Continuous
 62
     8
370
     0
100
AcDbSpline
210
0.0
220
0.0
230
1.0
 70
     8
 71
     3
 72
    13
 73
     9
 74
     0
 42
0.00000001
 43
0.00000001
 40
0.0
 40
0.0
 40
0.0
 40
0.0
 40
0.1442535475137846
 40
0.2974159658230578
 40
0.4751821352899426
 40
0.6920472673333423
 40
0.9379785012274253
 40
1.0
 40
1.0
 40
1.0
 40
1.0
 10
180.9592378493252
 20
166.864715518696
 30
0.0
 10
180.9580042495937
 20
166.9441993505183
 30
0.0
 10
180.9554608649636
 20
167.1080758098233
 30
0.0
 10
180.9915981307832
 20
167.3528657557552
 30
0.0
 10
181.0665827387878
 20
167.5910806856227
 30
0.0
 10
181.1927527498161
 20
167.7859652540678
 30
0.0
 10
181.3173863538153
 20
167.8595264077611
 30
0.0
 10
181.392810784062
 20
167.8638457663383
 30
0.0
 10
181.4080012198391
 20
167.8647156826088
 30
0.0
  0
SPLINE
  5
406
330
1F
100
AcDbEntity
  8
0
  6
Continuous
 62
     8
370
     0
100
AcDbSpline
210
0.0
220
0.0
230
1.0
 70
     8
 71
     3
 72
    12
 73
     8
 74
     0
 42
0.00000001
 43
0.00000001
 40
0.0
 40
0.0
 40
0.0
 40
0.0
 40
0.3378509946402527
 40
0.5621236559495749
 40
0.7331196424654173
 40
0.8721417739913043
 40
1.0
 40
1.0
 40
1.0
 40
1.0
 10
181.7605924960079
 20
167.4015885240266
 30
0.0
 10
181.6863563654804
 20
167.3923885073327
 30
0.0
 10
181.5628407158075
 20
167.3770813242822
 30
0.0
 10
181.4229063119192
 20
167.2679869050592
 30
0.0
 10
181.345773307364
 20
167.1487478174913
 30
0.0
 10
181.3081518858006
 20
167.0235718770402
 30
0.0
 10
181.3106896774567
 20
166.9401022340734
 30
0.0
 10
181.3119054939451
 20
166.900113227112
 30
0.0
  0
ARC
  5
407
330
1F
100
AcDbEntity
  8
0
  6
Continuous
 62
     8
370
     0
100
AcDbCircle
 10
181.3283139953
 20
167.4382654021
 30
0.0
 40
0.4338316442164776
100
AcDbArc
 50
355.1503268806
 51
79.4156786216
  0
LINE
  5
408
330
1F
100
AcDbEntity
  8
0
  6
Continuous
 62
     8
370
     0
100
AcDbLine
 10
192.1204180624
 20
167.401588524
 30
0.0
 11
181.760592496
 21
167.401588524
 31
0.0
  0
ELLIPSE
  5
409
330
1F
100
AcDbEntity
  8
0
  6
Continuous
 62
     8
370
     0
100
AcDbEllipse
 10
191.7678280081
 20
154.8647154144
 30
0.0
 11
-2.842170943040401E-14
 21
170.0000000000001
 31
0.0
210
0.0
220
0.0
230
1.0
 40
0.0020797258
 41
4.638575658460563
 42
4.786202302308887
  0
LINE
  5
40A
330
1F
100
AcDbEntity
  8
0
  6
Continuous
 62
     8
370
     0
100
AcDbLine
 10
181.760592496
 20
142.3278423047
 30
0.0
 11
192.1204180624
 21
142.3278423047
 31
0.0
  0
ARC
  5
40B
330
1F
100
AcDbEntity
  8
0
  6
Continuous
 62
     8
370
     0
100
AcDbCircle
 10
191.5877083759
 20
142.3293983421
 30
0.0
 40
0.5327119590571412
100
AcDbArc
 50
309.0119214685
 51
359.8326403279
  0
LINE
  5
40C
330
1F
100
AcDbEntity
  8
0
  6
Continuous
 62
     8
370
     0
100
AcDbLine
 10
191.6778722014
 20
141.8811706847
 30
0.0
 11
191.9230410065
 21
141.9154731578
 31
0.0
  0
ELLIPSE
  5
40D
330
1F
100
AcDbEntity
  8
0
  6
Continuous
 62
     8
370
     0
100
AcDbEllipse
 10
191.4080010871
 20
142.3647154144
 30
0.0
 11
1.060660171779858
 21
0.0
 31
0.0
210
0.0
220
0.0
230
1.0
 40
0.4714045208
 41
4.712388980384697
 42
4.969653503558172
  0
ELLIPSE
  5
40E
330
1F
100
AcDbEntity
  8
0
  6
Continuous
 62
     8
370
     0
100
AcDbEllipse
 10
191.4080010871
 20
167.3647154144
 30
0.0
 11
1.06066017177983
 21
0.0
 31
0.0
210
0.0
220
0.0
230
1.0
 40
0.4714045208
 41
1.313531803621456
 42
1.570796326794897
  0
LINE
  5
40F
330
1F
100
AcDbEntity
  8
0
  6
Continuous
 62
     8
370
     0
100
AcDbLine
 10
191.9230410065
 20
167.813957671
 30
0.0
 11
191.6778722014
 21
167.848260144
 31
0.0
  0
ARC
  5
410
330
1F
100
AcDbEntity
  8
0
  6
Continuous
 62
     8
370
     0
100
AcDbCircle
 10
191.5877083759
 20
167.4000324867
 30
0.0
 40
0.5327119590571412
100
AcDbArc
 50
0.1673596721
 51
50.9880785315
  0
LINE
  5
411
330
1F
100
AcDbEntity
  8
0
  6
Continuous
 62
     8
370
     0
100
AcDbLine
 10
164.4678284582
 20
129.9064569197
 30
0.0
 11
164.4678284582
 21
139.2647158376
 31
0.0
  0
LINE
  5
412
330
1F
100
AcDbEntity
  8
0
  6
Continuous
 62
     8
370
     0
100
AcDbLine
 10
160.4678278025
 20
139.2647158376
 30
0.0
 11
160.4678278025
 21
129.8647150419
 31
0.0
  0
LINE
  5
413
330
1F
100
AcDbEntity
  8
0
  6
Continuous
 62
     8
370
     0
100
AcDbLine
 10
164.4678284582
 20
141.3647150642
 30
0.0
 11
164.7678279485
 21
141.3647150642
 31
0.0
  0
LINE
  5
414
330
1F
100
AcDbEntity
  8
0
  6
Continuous
 62
     8
370
     0
100
AcDbLine
 10
164.4678284582
 20
141.3647150642
 30
0.0
 11
164.4678284582
 21
141.8647151462
 31
0.0
  0
LINE
  5
415
330
1F
100
AcDbEntity
  8
0
  6
Continuous
 62
     8
370
     0
100
AcDbLine
 10
164.4678284582
 20
141.3647150642
 30
0.0
 11
162.7863087859
 21
141.3647150642
 31
0.0
  0
LINE
  5
416
330
1F
100
AcDbEntity
  8
0
  6
Continuous
 62
     8
370
     0
100
AcDbLine
 10
164.4678284582
 20
139.2647158376
 30
0.0
 11
164.4678284582
 21
141.3647150642
 31
0.0
  0
LINE
  5
417
330
1F
100
AcDbEntity
  8
0
  6
Continuous
 62
     8
370
     0
100
AcDbLine
 10
160.4678278025
 20
139.9647155798
 30
0.0
 11
160.4678278025
 21
139.2647158376
 31
0.0
  0
ARC
  5
418
330
1F
100
AcDbEntity
  8
0
  6
Continuous
 62
     8
370
     0
100
AcDbCircle
 10
192.1376151393
 20
142.5721843347
 30
0.0
 40
0.2449464575186304
100
AcDbArc
 50
265.9740949338
 51
302.113382157
  0
ARC
  5
419
330
1F
100
AcDbEntity
  8
0
  6
Continuous
 62
     8
370
     0
100
AcDbCircle
 10
192.1376151393
 20
167.1572464941
 30
0.0
 40
0.2449464575186304
100
AcDbArc
 50
57.886617843
 51
94.0259050662
  0
LINE
  5
41A
330
1F
100
AcDbEntity
  8
0
  6
Continuous
 62
     8
370
     0
100
AcDbLine
 10
159.4678281043
 20
136.364715176
 30
0.0
 11
159.4678281043
 21
135.8647160253
 31
0.0
  0
LINE
  5
41B
330
1F
100
AcDbEntity
  8
0
  6
Continuous
 62
     8
370
     0
100
AcDbLine
 10
159.9678281862
 20
136.364715176
 30
0.0
 11
159.4678281043
 21
136.364715176
 31
0.0
  0
LINE
  5
41C
330
1F
100
AcDbEntity
  8
0
  6
Continuous
 62
     8
370
     0
100
AcDbLine
 10
159.4678281043
 20
136.364715176
 30
0.0
 11
159.4678281043
 21
139.9647155798
 31
0.0
  0
LINE
  5
41D
330
1F
100
AcDbEntity
  8
0
  6
Continuous
 62
     8
370
     0
100
AcDbLine
 10
191.4080009963
 20
141.8647151462
 30
0.0
 11
191.4080009963
 21
141.3647150642
 31
0.0
  0
LINE
  5
41E
330
1F
100
AcDbEntity
  8
0
  6
Continuous
 62
     8
370
     0
100
AcDbLine
 10
191.4080009963
 20
141.3647150642
 30
0.0
 11
175.2678287383
 21
141.3647150642
 31
0.0
  0
LWPOLYLINE
  5
41F
330
1F
100
AcDbEntity
  8
0
  6
Continuous
 62
     8
370
     0
100
AcDbPolyline
 90
        9
 70
   128
 43
0.0
 10
191.6778722014
 20
141.8811706847
 10
191.6820706036
 20
141.8586028761
 10
191.6888506319
 20
141.8221564985
 10
191.6980073955
 20
141.7729267872
 10
191.709268948
 20
141.7123982704
 10
191.7222925629
 20
141.6423916838
 10
191.7366870846
 20
141.5650155417
 10
191.7520203795
 20
141.4826000131
 10
191.7678267863
 20
141.3976261414
  0
ELLIPSE
  5
420
330
1F
100
AcDbEntity
  8
0
  6
Continuous
 62
     8
370
     0
100
AcDbEllipse
 10
191.4080010871
 20
142.3647154144
 30
0.0
 11
-1.414213562373078
 21
0.0
 31
0.0
210
0.0
220
0.0
230
1.0
 40
0.7071067812
 41
1.570796326794897
 42
1.828060849968369
  0
LINE
  5
421
330
1F
100
AcDbEntity
  8
0
  6
Continuous
 62
     8
370
     0
100
AcDbLine
 10
162.7863087859
 20
168.3647157646
 30
0.0
 11
164.7678279485
 21
168.3647157646
 31
0.0
  0
LINE
  5
422
330
1F
100
AcDbEntity
  8
0
  6
Continuous
 62
     8
370
     0
100
AcDbLine
 10
175.2678287383
 20
168.3647157646
 30
0.0
 11
191.4080009963
 21
168.3647157646
 31
0.0
  0
LINE
  5
423
330
1F
100
AcDbEntity
  8
0
  6
Continuous
 62
     8
370
     0
100
AcDbLine
 10
191.4080009963
 20
168.3647157646
 30
0.0
 11
191.4080009963
 21
167.8647156826
 31
0.0
  0
ELLIPSE
  5
424
330
1F
100
AcDbEntity
  8
0
  6
Continuous
 62
     8
370
     0
100
AcDbEllipse
 10
191.4080010871
 20
167.3647154144
 30
0.0
 11
-1.414213562373078
 21
0.0
 31
0.0
210
0.0
220
0.0
230
1.0
 40
0.7071067812
 41
4.455124457211228
 42
4.712388980384699
  0
LWPOLYLINE
  5
425
330
1F
100
AcDbEntity
  8
0
  6
Continuous
 62
     8
370
     0
100
AcDbPolyline
 90
        9
 70
   128
 43
0.0
 10
191.7678267863
 20
168.3318046874
 10
191.7520203795
 20
168.2468308157
 10
191.7366870846
 20
168.1644152871
 10
191.7222925629
 20
168.087039145
 10
191.709268948
 20
168.0170325584
 10
191.6980073955
 20
167.9565040416
 10
191.6888506319
 20
167.9072743303
 10
191.6820706036
 20
167.8708279527
 10
191.6778722014
 20
167.848260144
  0
SPLINE
  5
426
330
1F
100
AcDbEntity
  8
0
  6
Continuous
 62
     8
370
     0
100
AcDbSpline
210
0.0
220
0.0
230
1.0
 70
     8
 71
     3
 72
    10
 73
     6
 74
     0
 42
0.00000001
 43
0.00000001
 40
0.0
 40
0.0
 40
0.0
 40
0.0
 40
0.0417791533994619
 40
0.4955451860796645
 40
1.0
 40
1.0
 40
1.0
 40
1.0
 10
191.9230410065356
 20
141.9154731578061
 30
0.0
 10
191.9270261329852
 20
141.9164300915813
 30
0.0
 10
191.9742939703479
 20
141.9277803437313
 30
0.0
 10
192.0641294853603
 20
141.9606001252092
 30
0.0
 10
192.1216588783451
 20
142.01564868814
 30
0.0
 10
192.1519451942148
 20
142.0446289724538
 30
0.0
  0
SPLINE
  5
427
330
1F
100
AcDbEntity
  8
0
  6
Continuous
 62
     8
370
     0
100
AcDbSpline
210
0.0
220
0.0
230
1.0
 70
     8
 71
     3
 72
     9
 73
     5
 74
     0
 42
0.00000001
 43
0.00000001
 40
0.0
 40
0.0
 40
0.0
 40
0.0
 40
0.5128940407135478
 40
1.0
 40
1.0
 40
1.0
 40
1.0
 10
192.1519451942148
 20
167.684801856322
 30
0.0
 10
192.121316385494
 20
167.7146236813543
 30
0.0
 10
192.0615987707636
 20
167.7727679034842
 30
0.0
 10
191.9684260123849
 20
167.8004658406946
 30
0.0
 10
191.9230410065355
 20
167.8139576709696
 30
0.0
  0
ARC
  5
428
330
1F
100
AcDbEntity
  8
0
  6
Continuous
 62
     8
370
     0
100
AcDbCircle
 10
192.688027629
 20
141.6908525883
 30
0.0
 40
0.7972822165276469
100
AcDbArc
 50
163.6363477497
 51
196.3636522503
  0
LINE
  5
429
330
1F
100
AcDbEntity
  8
0
  6
Continuous
 62
     8
370
     0
100
AcDbLine
 10
191.9230410065
 20
141.4662320188
 30
0.0
 11
191.7678267863
 21
141.3976261414
 31
0.0
  0
LINE
  5
42A
330
1F
100
AcDbEntity
  8
0
  6
Continuous
 62
     8
370
     0
100
AcDbLine
 10
191.7678267863
 20
168.3318046874
 30
0.0
 11
191.9230410065
 21
168.26319881
 31
0.0
  0
ARC
  5
42B
330
1F
100
AcDbEntity
  8
0
  6
Continuous
 62
     8
370
     0
100
AcDbCircle
 10
192.688027629
 20
168.0385782405
 30
0.0
 40
0.7972822165276469
100
AcDbArc
 50
163.6363477497
 51
196.3636522503
  0
ARC
  5
42C
330
1F
100
AcDbEntity
  8
0
  6
Continuous
 62
     8
370
     0
100
AcDbCircle
 10
192.4009887108
 20
141.8845858446
 30
0.0
 40
0.2960345857123374
100
AcDbArc
 50
147.2739357069
 51
212.7260642931
  0
SPLINE
  5
42D
330
1F
100
AcDbEntity
  8
0
  6
Continuous
 62
     8
370
     0
100
AcDbSpline
210
0.0
220
0.0
230
1.0
 70
     8
 71
     3
 72
    11
 73
     7
 74
     0
 42
0.00000001
 43
0.00000001
 40
0.0
 40
0.0
 40
0.0
 40
0.0
 40
0.5438256062638348
 40
0.9248812635484185
 40
0.9639236965788336
 40
1.0
 40
1.0
 40
1.0
 40
1.0
 10
192.1519451942148
 20
141.7245427167842
 30
0.0
 10
192.123459225132
 20
141.6679682346262
 30
0.0
 10
192.0750132917753
 20
141.5717523191928
 30
0.0
 10
191.9843864600294
 20
141.4983732746402
 30
0.0
 10
191.9353636783536
 20
141.4721210899572
 30
0.0
 10
191.927038994647
 20
141.4681426788351
 30
0.0
 10
191.9230410065355
 20
141.4662320188114
 30
0.0
  0
SPLINE
  5
42E
330
1F
100
AcDbEntity
  8
0
  6
Continuous
 62
     8
370
     0
100
AcDbSpline
210
0.0
220
0.0
230
1.0
 70
     8
 71
     3
 72
     9
 73
     5
 74
     0
 42
0.00000001
 43
0.00000001
 40
0.0
 40
0.0
 40
0.0
 40
0.0
 40
0.4473573250102568
 40
1.0
 40
1.0
 40
1.0
 40
1.0
 10
191.9230410065355
 20
168.2631988099643
 30
0.0
 10
191.9692628505475
 20
168.234119166918
 30
0.0
 10
192.0725848292609
 20
168.1691159996051
 30
0.0
 10
192.12369791937
 20
168.0633428618066
 30
0.0
 10
192.1519451942148
 20
168.0048881119916
 30
0.0
  0
ARC
  5
42F
330
1F
100
AcDbEntity
  8
0
  6
Continuous
 62
     8
370
     0
100
AcDbCircle
 10
192.4009887108
 20
167.8448449842
 30
0.0
 40
0.2960345857123374
100
AcDbArc
 50
147.2739357069
 51
212.7260642931
  0
ELLIPSE
  5
430
330
1F
100
AcDbEntity
  8
0
  6
Continuous
 62
     8
370
     0
100
AcDbEllipse
 10
191.7678280081
 20
142.3647154144
 30
0.0
 11
0.0
 21
1.0
 31
0.0
210
0.0
220
0.0
230
1.0
 40
0.5
 41
4.017665440415217
 42
4.712388980384697
  0
ELLIPSE
  5
431
330
1F
100
AcDbEntity
  8
0
  6
Continuous
 62
     8
370
     0
100
AcDbEllipse
 10
191.7678280081
 20
167.3647154144
 30
0.0
 11
0.0
 21
1.0
 31
0.0
210
0.0
220
0.0
230
1.0
 40
0.5
 41
4.712388980384697
 42
5.407112520357032
  0
LINE
  5
432
330
1F
100
AcDbEntity
  8
0
  6
Continuous
 62
     8
370
     0
100
AcDbLine
 10
170.9678285923
 20
139.3647156677
 30
0.0
 11
172.2678282466
 21
139.3647156677
 31
0.0
  0
LINE
  5
433
330
1F
100
AcDbEntity
  8
0
  6
Continuous
 62
     8
370
     0
100
AcDbLine
 10
175.2678287383
 20
139.3647156677
 30
0.0
 11
191.7678267863
 21
139.3647156677
 31
0.0
  0
ARC
  5
434
330
1F
100
AcDbEntity
  8
0
  6
Continuous
 62
     8
370
     0
100
AcDbCircle
 10
170.9678280081
 20
138.6647154144
 30
0.0
 40
0.700000000000017
100
AcDbArc
 50
90.0
 51
180.0
  0
LINE
  5
435
330
1F
100
AcDbEntity
  8
0
  6
Continuous
 62
     8
370
     0
100
AcDbLine
 10
170.2678279187
 20
138.3647155038
 30
0.0
 11
170.2678279187
 21
138.6647149942
 31
0.0
  0
LINE
  5
436
330
1F
100
AcDbEntity
  8
0
  6
Continuous
 62
     8
370
     0
100
AcDbLine
 10
191.7678267863
 20
139.3647156677
 30
0.0
 11
191.7678267863
 21
141.3976261414
 31
0.0
  0
LINE
  5
437
330
1F
100
AcDbEntity
  8
0
  6
Continuous
 62
     8
370
     0
100
AcDbLine
 10
170.767828932
 20
138.6647149942
 30
0.0
 11
170.2678279187
 21
138.6647149942
 31
0.0
  0
LINE
  5
438
330
1F
100
AcDbEntity
  8
0
  6
Continuous
 62
     8
370
     0
100
AcDbLine
 10
154.2678280319
 20
136.364715176
 30
0.0
 11
154.2678280319
 21
135.8647160253
 31
0.0
  0
LINE
  5
439
330
1F
100
AcDbEntity
  8
0
  6
Continuous
 62
     8
370
     0
100
AcDbLine
 10
154.2678280319
 20
136.364715176
 30
0.0
 11
159.4678281043
 21
136.364715176
 31
0.0
  0
LINE
  5
43A
330
1F
100
AcDbEntity
  8
0
  6
Continuous
 62
     8
370
     0
100
AcDbLine
 10
153.7678280081
 20
136.364715176
 30
0.0
 11
154.2678280319
 21
136.364715176
 31
0.0
  0
LINE
  5
43B
330
1F
100
AcDbEntity
  8
0
  6
Continuous
 62
     8
370
     0
100
AcDbLine
 10
154.2678280319
 20
139.9647155798
 30
0.0
 11
154.2678280319
 21
136.364715176
 31
0.0
  0
LINE
  5
43C
330
1F
100
AcDbEntity
  8
0
  6
Continuous
 62
     8
370
     0
100
AcDbLine
 10
191.7678267863
 20
138.8647146544
 30
0.0
 11
191.7678267863
 21
139.3647156677
 31
0.0
  0
LINE
  5
43D
330
1F
100
AcDbEntity
  8
0
  6
Continuous
 62
     8
370
     0
100
AcDbLine
 10
191.7678267863
 20
139.3647156677
 30
0.0
 11
192.2678277995
 21
139.3647156677
 31
0.0
  0
LINE
  5
43E
330
1F
100
AcDbEntity
  8
0
  6
Continuous
 62
     8
370
     0
100
AcDbLine
 10
170.9678285923
 20
138.8647146544
 30
0.0
 11
170.9678285923
 21
139.3647156677
 31
0.0
  0
LINE
  5
43F
330
1F
100
AcDbEntity
  8
0
  6
Continuous
 62
     8
370
     0
100
AcDbLine
 10
191.7678267863
 20
168.3318046874
 30
0.0
 11
191.7678267863
 21
170.3647151611
 31
0.0
  0
LINE
  5
440
330
1F
100
AcDbEntity
  8
0
  6
Continuous
 62
     8
370
     0
100
AcDbLine
 10
164.7678279485
 20
173.3647156528
 30
0.0
 11
154.2678280319
 21
173.3647156528
 31
0.0
  0
LINE
  5
441
330
1F
100
AcDbEntity
  8
0
  6
Continuous
 62
     8
370
     0
100
AcDbLine
 10
170.2678279187
 20
171.0647158346
 30
0.0
 11
170.2678279187
 21
171.364715325
 31
0.0
  0
ARC
  5
442
330
1F
100
AcDbEntity
  8
0
  6
Continuous
 62
     8
370
     0
100
AcDbCircle
 10
170.9678280081
 20
171.0647154144
 30
0.0
 40
0.700000000000017
100
AcDbArc
 50
180.0
 51
270.0
  0
LINE
  5
443
330
1F
100
AcDbEntity
  8
0
  6
Continuous
 62
     8
370
     0
100
AcDbLine
 10
191.7678267863
 20
170.3647151611
 30
0.0
 11
175.2678287383
 21
170.3647151611
 31
0.0
  0
LINE
  5
444
330
1F
100
AcDbEntity
  8
0
  6
Continuous
 62
     8
370
     0
100
AcDbLine
 10
172.2678282466
 20
170.3647151611
 30
0.0
 11
170.9678285923
 21
170.3647151611
 31
0.0
  0
LINE
  5
445
330
1F
100
AcDbEntity
  8
0
  6
Continuous
 62
     8
370
     0
100
AcDbLine
 10
154.2678280319
 20
173.3647156528
 30
0.0
 11
154.2678280319
 21
169.764715249
 31
0.0
  0
LINE
  5
446
330
1F
100
AcDbEntity
  8
0
  6
Continuous
 62
     8
370
     0
100
AcDbLine
 10
154.2678280319
 20
173.3647156528
 30
0.0
 11
153.7678280081
 21
173.3647156528
 31
0.0
  0
LINE
  5
447
330
1F
100
AcDbEntity
  8
0
  6
Continuous
 62
     8
370
     0
100
AcDbLine
 10
170.9678285923
 20
170.3647151611
 30
0.0
 11
170.9678285923
 21
170.8647161743
 31
0.0
  0
LINE
  5
448
330
1F
100
AcDbEntity
  8
0
  6
Continuous
 62
     8
370
     0
100
AcDbLine
 10
170.2678279187
 20
171.0647158346
 30
0.0
 11
170.767828932
 21
171.0647158346
 31
0.0
  0
LINE
  5
449
330
1F
100
AcDbEntity
  8
0
  6
Continuous
 62
     8
370
     0
100
AcDbLine
 10
154.2678280319
 20
173.8647148034
 30
0.0
 11
154.2678280319
 21
173.3647156528
 31
0.0
  0
LINE
  5
44A
330
1F
100
AcDbEntity
  8
0
  6
Continuous
 62
     8
370
     0
100
AcDbLine
 10
144.6248992514
 20
141.9647149763
 30
0.0
 11
162.9107567649
 21
141.9647149763
 31
0.0
  0
LINE
  5
44B
330
1F
100
AcDbEntity
  8
0
  6
Continuous
 62
     8
370
     0
100
AcDbLine
 10
144.6248992514
 20
167.7647158525
 30
0.0
 11
162.9107567649
 21
167.7647158525
 31
0.0
  0
LINE
  5
44C
330
1F
100
AcDbEntity
  8
0
  6
Continuous
 62
     8
370
     0
100
AcDbLine
 10
169.7678287681
 20
138.3672226242
 30
0.0
 11
169.7678287681
 21
129.7188177726
 31
0.0
  0
LINE
  5
44D
330
1F
100
AcDbEntity
  8
0
  6
Continuous
 62
     8
370
     0
100
AcDbLine
 10
140.1219303887
 20
127.3647155634
 30
0.0
 11
167.4137256276
 21
127.3647155634
 31
0.0
  0
LINE
  5
44E
330
1F
100
AcDbEntity
  8
0
  6
Continuous
 62
     8
370
     0
100
AcDbLine
 10
137.7678272482
 20
150.8672218791
 30
0.0
 11
137.7678272482
 21
129.7188177726
 31
0.0
  0
LINE
  5
44F
330
1F
100
AcDbEntity
  8
0
  6
Continuous
 62
     8
370
     0
100
AcDbLine
 10
137.7678272482
 20
180.0106130562
 30
0.0
 11
137.7678272482
 21
158.8622089497
 31
0.0
  0
LINE
  5
450
330
1F
100
AcDbEntity
  8
0
  6
Continuous
 62
     8
370
     0
100
AcDbLine
 10
140.1219303887
 20
182.3647152654
 30
0.0
 11
167.4137256276
 21
182.3647152654
 31
0.0
  0
LINE
  5
451
330
1F
100
AcDbEntity
  8
0
  6
Continuous
 62
     8
370
     0
100
AcDbLine
 10
169.7678287681
 20
171.3622082046
 30
0.0
 11
169.7678287681
 21
180.0106130562
 31
0.0
  0
LINE
  5
452
330
1F
100
AcDbEntity
  8
0
  6
Continuous
 62
     8
370
     0
100
AcDbLine
 10
135.8928271737
 20
126.3647153995
 30
0.0
 11
135.8928271737
 21
124.8647160849
 31
0.0
  0
LINE
  5
453
330
1F
100
AcDbEntity
  8
0
  6
Continuous
 62
     8
370
     0
100
AcDbLine
 10
171.6428288426
 20
126.3647153995
 30
0.0
 11
171.6428288426
 21
124.8647160849
 31
0.0
  0
LINE
  5
454
330
1F
100
AcDbEntity
  8
0
  6
Continuous
 62
     8
370
     0
100
AcDbLine
 10
136.7678270843
 20
127.2397153101
 30
0.0
 11
135.2678277697
 21
127.2397153101
 31
0.0
  0
LINE
  5
455
330
1F
100
AcDbEntity
  8
0
  6
Continuous
 62
     8
370
     0
100
AcDbLine
 10
170.767828932
 20
127.2397153101
 30
0.0
 11
172.2678282466
 21
127.2397153101
 31
0.0
  0
LINE
  5
456
330
1F
100
AcDbEntity
  8
0
  6
Continuous
 62
     8
370
     0
100
AcDbLine
 10
136.7678270843
 20
151.3647153064
 30
0.0
 11
135.2678277697
 21
151.3647153064
 31
0.0
  0
LINE
  5
457
330
1F
100
AcDbEntity
  8
0
  6
Continuous
 62
     8
370
     0
100
AcDbLine
 10
136.7678270843
 20
158.3647155224
 30
0.0
 11
135.2678277697
 21
158.3647155224
 31
0.0
  0
LINE
  5
458
330
1F
100
AcDbEntity
  8
0
  6
Continuous
 62
     8
370
     0
100
AcDbLine
 10
170.767828932
 20
182.4897155187
 30
0.0
 11
172.2678282466
 21
182.4897155187
 31
0.0
  0
LINE
  5
459
330
1F
100
AcDbEntity
  8
0
  6
Continuous
 62
     8
370
     0
100
AcDbLine
 10
136.7678270843
 20
182.4897155187
 30
0.0
 11
135.2678277697
 21
182.4897155187
 31
0.0
  0
LINE
  5
45A
330
1F
100
AcDbEntity
  8
0
  6
Continuous
 62
     8
370
     0
100
AcDbLine
 10
171.6428288426
 20
183.3647154293
 30
0.0
 11
171.6428288426
 21
184.8647147438
 31
0.0
  0
LINE
  5
45B
330
1F
100
AcDbEntity
  8
0
  6
Continuous
 62
     8
370
     0
100
AcDbLine
 10
135.8928271737
 20
183.3647154293
 30
0.0
 11
135.8928271737
 21
184.8647147438
 31
0.0
  0
LINE
  5
45C
330
1F
100
AcDbEntity
  8
0
  6
Continuous
 62
     8
370
     0
100
AcDbLine
 10
137.2678280976
 20
157.4647154215
 30
0.0
 11
137.2678280976
 21
152.2647154073
 31
0.0
  0
DIMENSION
  5
45D
330
1F
100
AcDbEntity
  8
0
  6
Continuous
 62
     7
370
     0
100
AcDbDimension
  2
*D23
 10
172.2678280081
 20
89.8647154144
 30
0.0
 11
182.9020474503
 21
89.8647154144
 31
0.0
 70
   160
 71
     2
 42
-1.0
  3
SLDDIMSTYLE2
100
AcDbAlignedDimension
 13
175.2678280081
 23
99.8647154144
 33
0.0
 14
172.2678280081
 24
99.8647154144
 34
0.0
100
AcDbRotatedDimension
  0
DIMENSION
  5
469
330
1F
100
AcDbEntity
  8
0
  6
Continuous
 62
     7
370
     0
100
AcDbDimension
  2
*D24
 10
135.2678280081
 20
89.8647154144
 30
0.0
 11
154.1436146969
 21
89.8647154144
 31
0.0
 70
   160
 71
     2
 42
-1.0
  3
SLDDIMSTYLE1
100
AcDbAlignedDimension
 13
172.2678280081
 23
99.8647154144
 33
0.0
 14
135.2678280081
 24
126.8647154144
 34
0.0
 50
0.0
100
AcDbRotatedDimension
  0
DIMENSION
  5
473
330
1F
100
AcDbEntity
  8
0
  6
Continuous
 62
     7
370
     0
100
AcDbDimension
  2
*D25
 10
125.2640529969
 20
122.8647154144
 30
0.0
 11
125.2640529969
 21
154.2548079782
 31
0.0
 70
   160
 71
     2
 42
-1.0
  3
SLDDIMSTYLE1
100
AcDbAlignedDimension
 13
137.2678280081
 23
186.8647154144
 33
0.0
 14
137.2678280081
 24
122.8647154144
 34
0.0
 50
90.0
100
AcDbRotatedDimension
  0
DIMENSION
  5
47D
330
1F
100
AcDbEntity
  8
0
  6
Continuous
 62
     7
370
     0
100
AcDbDimension
  2
*D26
 10
175.2678280081
 20
187.5185786898
 30
0.0
 11
183.6960600311
 21
187.5185786898
 31
0.0
 70
   160
 71
     2
 42
-1.0
  3
SLDDIMSTYLE1
100
AcDbAlignedDimension
 13
192.2678280081
 23
167.3647154144
 33
0.0
 14
175.2678280081
 24
209.8647154144
 34
0.0
 50
0.0
100
AcDbRotatedDimension
  0
LINE
  5
486
330
1F
100
AcDbEntity
  8
0
  6
CENTERX2
 62
     7
370
     0
100
AcDbLine
 10
195.3944671808
 20
154.8647154144
 30
0.0
 11
131.304245616
 21
154.8647154144
 31
0.0
  0
LINE
  5
487
330
1F
100
AcDbEntity
  8
0
  6
Continuous
 62
     7
370
    30
100
AcDbLine
 10
182.0745758067
 20
256.5975795161
 30
0.0
 11
182.3273660186
 21
256.7435121991
 31
0.0
  0
LINE
  5
488
330
1F
100
AcDbEntity
  8
0
  6
Continuous
 62
     7
370
    30
100
AcDbLine
 10
180.4450189462
 20
260.0041861915
 30
0.0
 11
180.1922287343
 21
259.8582535084
 31
0.0
  0
LINE
  5
489
330
1F
100
AcDbEntity
  8
0
  6
Continuous
 62
     7
370
    30
100
AcDbLine
 10
182.0745758067
 20
238.6336809915
 30
0.0
 11
182.3273660186
 21
238.7796136745
 31
0.0
  0
LINE
  5
48A
330
1F
100
AcDbEntity
  8
0
  6
Continuous
 62
     7
370
    30
100
AcDbLine
 10
198.3145965115
 20
268.3154872107
 30
0.0
 11
197.7842666679
 21
268.6216401128
 31
0.0
  0
LINE
  5
48B
330
1F
100
AcDbEntity
  8
0
  6
Continuous
 62
     7
370
    30
100
AcDbLine
 10
176.8814703067
 20
251.3668792353
 30
0.0
 11
176.8814703067
 21
250.2811154145
 31
0.0
  0
LINE
  5
48C
330
1F
100
AcDbEntity
  8
0
  6
Continuous
 62
     7
370
    30
100
AcDbLine
 10
182.9979701229
 20
254.8978590419
 30
0.0
 11
176.8814712945
 21
251.3668794272
 31
0.0
  0
LINE
  5
48D
330
1F
100
AcDbEntity
  8
0
  6
Continuous
 62
     7
370
    30
100
AcDbLine
 10
176.4243645209
 20
249.3248072126
 30
0.0
 11
176.4243636977
 21
245.1582243323
 31
0.0
  0
SPLINE
  5
48E
330
1F
100
AcDbEntity
  8
0
  6
Continuous
 62
     7
370
    30
100
AcDbSpline
210
0.0
220
0.0
230
1.0
 70
     8
 71
     3
 72
    15
 73
    11
 74
     0
 42
0.00000001
 43
0.00000001
 40
0.0
 40
0.0
 40
0.0
 40
0.0
 40
0.1291074635141682
 40
0.2691314118255241
 40
0.3857260779780559
 40
0.4803662830484766
 40
0.5590491169074484
 40
0.666472992446438
 40
0.9126896696746819
 40
1.0
 40
1.0
 40
1.0
 40
1.0
 10
176.7752660107106
 20
254.6537392373669
 30
0.0
 10
176.7599183505549
 20
254.6442974104958
 30
0.0
 10
176.7279253322313
 20
254.6246154174732
 30
0.0
 10
176.6933380953751
 20
254.5828999203697
 30
0.0
 10
176.6698912958751
 20
254.540903297387
 30
0.0
 10
176.6575978169085
 20
254.5058151485641
 30
0.0
 10
176.6509087720013
 20
254.4777098039784
 30
0.0
 10
176.6450172459776
 20
254.441954904885
 30
0.0
 10
176.6404290606712
 20
254.4015307303436
 30
0.0
 10
176.6372034498349
 20
254.3574878512174
 30
0.0
 10
176.6363590530057
 20
254.345958355141
 30
0.0
  0
LINE
  5
48F
330
1F
100
AcDbEntity
  8
0
  6
Continuous
 62
     7
370
    30
100
AcDbLine
 10
179.0003072974
 20
255.9400230002
 30
0.0
 11
176.7745414471
 21
254.6551157249
 31
0.0
  0
LINE
  5
490
330
1F
100
AcDbEntity
  8
0
  6
Continuous
 62
     7
370
    30
100
AcDbLine
 10
176.8814703067
 20
239.5074760364
 30
0.0
 11
176.8814703067
 21
238.5661511151
 31
0.0
  0
ARC
  5
491
330
1F
100
AcDbEntity
  8
0
  6
Continuous
 62
     7
370
    30
100
AcDbCircle
 10
176.9051356131
 20
239.921623085
 30
0.0
 40
0.2500000000000043
100
AcDbArc
 50
184.9189106075
 51
236.968309565
  0
SPLINE
  5
492
330
1F
100
AcDbEntity
  8
0
  6
Continuous
 62
     7
370
    30
100
AcDbSpline
210
0.0
220
0.0
230
1.0
 70
     8
 71
     3
 72
    12
 73
     8
 74
     0
 42
0.00000001
 43
0.00000001
 40
0.0
 40
0.0
 40
0.0
 40
0.0
 40
0.0027125039283913
 40
0.3739272892288752
 40
0.7096972182307759
 40
0.9859931459937373
 40
1.0
 40
1.0
 40
1.0
 40
1.0
 10
176.7683705558036
 20
239.712236014113
 30
0.0
 10
176.7685727419768
 20
239.7121499991295
 30
0.0
 10
176.796444748672
 20
239.7002925602243
 30
0.0
 10
176.8360608035659
 20
239.6528327704585
 30
0.0
 10
176.8716031815633
 20
239.5828305022455
 30
0.0
 10
176.8833682943315
 20
239.5314495874435
 30
0.0
 10
176.8812237620833
 20
239.5082643398111
 30
0.0
 10
176.8811202902876
 20
239.5071456719957
 30
0.0
  0
LINE
  5
493
330
1F
100
AcDbEntity
  8
0
  6
Continuous
 62
     7
370
    30
100
AcDbLine
 10
177.5950003176
 20
238.1468413848
 30
0.0
 11
183.0889078755
 21
241.1043742364
 31
0.0
  0
ARC
  5
494
330
1F
100
AcDbEntity
  8
0
  6
Continuous
 62
     7
370
    30
100
AcDbCircle
 10
177.4764979615
 20
238.3669714042
 30
0.0
 40
0.2500000000000136
100
AcDbArc
 50
240.0026882664
 51
298.2948906665
  0
LINE
  5
495
330
1F
100
AcDbEntity
  8
0
  6
Continuous
 62
     7
370
    30
100
AcDbLine
 10
177.0064808228
 20
238.349639096
 30
0.0
 11
177.3515080956
 21
238.1504590911
 31
0.0
  0
ARC
  5
496
330
1F
100
AcDbEntity
  8
0
  6
Continuous
 62
     7
370
    30
100
AcDbCircle
 10
177.1314709757
 20
238.5661512435
 30
0.0
 40
0.2500000000000088
100
AcDbArc
 50
180.0
 51
240.0026882663
  0
LINE
  5
497
330
1F
100
AcDbEntity
  8
0
  6
Continuous
 62
     7
370
    30
100
AcDbLine
 10
183.0909961201
 20
241.1055383277
 30
0.0
 11
183.7779818483
 21
241.502126747
 31
0.0
  0
LINE
  5
498
330
1F
100
AcDbEntity
  8
0
  6
Continuous
 62
     7
370
    30
100
AcDbLine
 10
188.1651427988
 20
260.7139712024
 30
0.0
 11
188.1651427988
 21
261.3263765314
 31
0.0
  0
LINE
  5
499
330
1F
100
AcDbEntity
  8
0
  6
Continuous
 62
     7
370
    30
100
AcDbLine
 10
190.6620131483
 20
270.0708164674
 30
0.0
 11
186.5003424884
 21
267.6683351337
 31
0.0
  0
LINE
  5
49A
330
1F
100
AcDbEntity
  8
0
  6
Continuous
 62
     7
370
    30
100
AcDbLine
 10
198.0646380409
 20
266.4288281615
 30
0.0
 11
198.0646380409
 21
267.0412334906
 31
0.0
  0
LINE
  5
49B
330
1F
100
AcDbEntity
  8
0
  6
Continuous
 62
     7
370
    30
100
AcDbLine
 10
188.1651427988
 20
236.8301527224
 30
0.0
 11
188.1651427988
 21
237.4425580515
 31
0.0
  0
LINE
  5
49C
330
1F
100
AcDbEntity
  8
0
  6
Continuous
 62
     7
370
    30
100
AcDbLine
 10
198.0646380409
 20
242.5450096815
 30
0.0
 11
198.0646380409
 21
243.1574150106
 31
0.0
  0
ARC
  5
49D
330
1F
100
AcDbEntity
  8
0
  6
Continuous
 62
     7
370
    30
100
AcDbCircle
 10
181.788660551
 20
257.4961144574
 30
0.0
 40
0.9255342997746625
100
AcDbArc
 50
305.5947233996
 51
0.3429631804
  0
ARC
  5
49E
330
1F
100
AcDbEntity
  8
0
  6
Continuous
 62
     7
370
    30
100
AcDbCircle
 10
180.8277651512
 20
259.1691283824
 30
0.0
 40
0.918594688597902
100
AcDbArc
 50
59.4272729286
 51
114.6242098065
  0
LWPOLYLINE
  5
49F
330
1F
100
AcDbEntity
  8
0
  6
Continuous
 62
     7
370
    30
100
AcDbPolyline
 90
       36
 70
   128
 43
0.0
 10
181.1334021059
 20
256.6907781362
 10
181.371084319
 20
256.5782699918
 10
181.6011274158
 20
256.5187821243
 10
181.8161372585
 20
256.5142271644
 10
182.0092030812
 20
256.5647519937
 10
182.1741204067
 20
256.6687322514
 10
182.3055879518
 20
256.8228259662
 10
182.399380824
 20
257.0220804172
 10
182.4524838775
 20
257.2600916537
 10
182.4631904941
 20
257.5292090686
 10
182.4311565844
 20
257.8207840753
 10
182.3574117825
 20
258.1254442554
 10
182.2443265196
 20
258.4333983013
 10
182.0955349735
 20
258.7347474184
 10
181.9158198236
 20
259.01980661
 10
181.7109571639
 20
259.2794147414
 10
181.4875314516
 20
259.5052253997
 10
181.2527237853
 20
259.689983492
 10
181.0140807558
 20
259.8277491805
 10
180.7792730894
 20
259.9140942491
 10
180.5558472125
 20
259.9462455225
 10
180.3509845528
 20
259.9231667834
 10
180.1712694029
 20
259.8456022871
 10
180.0224780214
 20
259.7160441375
 10
179.9093925939
 20
259.538655652
 10
179.8356479567
 20
259.3191393127
 10
179.8036140469
 20
259.0645498709
 10
179.8143208281
 20
258.7830707646
 10
179.867423717
 20
258.4837481427
 10
179.9612164246
 20
258.1762028414
 10
180.0926841343
 20
257.8703198349
 10
180.2576012952
 20
257.5759301812
 10
180.4506674471
 20
257.3024961078
 10
180.6656771253
 20
257.0588060822
 10
180.8957202221
 20
256.8526918437
 10
181.1334021059
 20
256.6907781362
  0
LINE
  5
4A0
330
1F
100
AcDbEntity
  8
0
  6
Continuous
 62
     7
370
    30
100
AcDbLine
 10
180.8782470606
 20
257.8648758181
 30
0.0
 11
181.3885574804
 21
257.5702798835
 31
0.0
  0
LINE
  5
4A1
330
1F
100
AcDbEntity
  8
0
  6
Continuous
 62
     7
370
    30
100
AcDbLine
 10
181.3885574804
 20
257.5702798835
 30
0.0
 11
181.6437125257
 21
257.9333202923
 31
0.0
  0
LINE
  5
4A2
330
1F
100
AcDbEntity
  8
0
  6
Continuous
 62
     7
370
    30
100
AcDbLine
 10
181.6437125257
 20
257.9333202923
 30
0.0
 11
181.3885574804
 21
258.5909564458
 31
0.0
  0
LINE
  5
4A3
330
1F
100
AcDbEntity
  8
0
  6
Continuous
 62
     7
370
    30
100
AcDbLine
 10
181.3885574804
 20
258.5909564458
 30
0.0
 11
180.8782470606
 21
258.8855523805
 31
0.0
  0
LINE
  5
4A4
330
1F
100
AcDbEntity
  8
0
  6
Continuous
 62
     7
370
    30
100
AcDbLine
 10
180.8782470606
 20
258.8855523805
 30
0.0
 11
180.6230918507
 21
258.5225120667
 31
0.0
  0
LINE
  5
4A5
330
1F
100
AcDbEntity
  8
0
  6
Continuous
 62
     7
370
    30
100
AcDbLine
 10
180.6230918507
 20
258.5225120667
 30
0.0
 11
180.8782470606
 21
257.8648758181
 31
0.0
  0
LINE
  5
4A6
330
1F
100
AcDbEntity
  8
0
  6
Continuous
 62
     7
370
    30
100
AcDbLine
 10
181.4085769042
 20
258.1710287202
 30
0.0
 11
181.5927309733
 21
258.0647188389
 31
0.0
  0
LINE
  5
4A7
330
1F
100
AcDbEntity
  8
0
  6
Continuous
 62
     7
370
    30
100
AcDbLine
 10
181.204403082
 20
258.6972658523
 30
0.0
 11
181.4085769042
 21
258.1710287202
 31
0.0
  0
LINE
  5
4A8
330
1F
100
AcDbEntity
  8
0
  6
Continuous
 62
     7
370
    30
100
AcDbLine
 10
181.0651049489
 20
258.7776807968
 30
0.0
 11
180.6230918507
 21
258.5225120667
 31
0.0
  0
LINE
  5
4A9
330
1F
100
AcDbEntity
  8
0
  6
Continuous
 62
     7
370
    30
100
AcDbLine
 10
181.4085769042
 20
258.1710287202
 30
0.0
 11
180.8782470606
 21
257.8648758181
 31
0.0
  0
LWPOLYLINE
  5
4AA
330
1F
100
AcDbEntity
  8
0
  6
Continuous
 62
     7
370
    30
100
AcDbPolyline
 90
       14
 70
   128
 43
0.0
 10
181.1334021059
 20
238.7268803721
 10
181.371084319
 20
238.6143714672
 10
181.6011274158
 20
238.5548843601
 10
181.8161372585
 20
238.5503294003
 10
182.0092030812
 20
238.6008542295
 10
182.1741204067
 20
238.7048344872
 10
182.3055879518
 20
238.8589282021
 10
182.399380824
 20
239.0581826531
 10
182.4524838775
 20
239.2961938895
 10
182.4631904941
 20
239.5653113044
 10
182.4311565844
 20
239.8568863111
 10
182.3574117825
 20
240.1615464913
 10
182.2443265196
 20
240.4694997767
 10
182.1778932082
 20
240.6139476518
  0
ARC
  5
4AB
330
1F
100
AcDbEntity
  8
0
  6
Continuous
 62
     7
370
    30
100
AcDbCircle
 10
182.5248047072
 20
240.9778084471
 30
0.0
 40
2.646257432305762
100
AcDbArc
 50
211.673358649
 51
238.2778742261
  0
LINE
  5
4AC
330
1F
100
AcDbEntity
  8
0
  6
Continuous
 62
     7
370
    30
100
AcDbLine
 10
180.8782470606
 20
239.900978054
 30
0.0
 11
181.3885574804
 21
239.6063821193
 31
0.0
  0
LINE
  5
4AD
330
1F
100
AcDbEntity
  8
0
  6
Continuous
 62
     7
370
    30
100
AcDbLine
 10
181.3885574804
 20
239.6063821193
 30
0.0
 11
181.6437125257
 21
239.9694225282
 31
0.0
  0
LINE
  5
4AE
330
1F
100
AcDbEntity
  8
0
  6
Continuous
 62
     7
370
    30
100
AcDbLine
 10
181.6437125257
 20
239.9694225282
 30
0.0
 11
181.5291452083
 21
240.2647080739
 31
0.0
  0
LINE
  5
4AF
330
1F
100
AcDbEntity
  8
0
  6
Continuous
 62
     7
370
    30
100
AcDbLine
 10
180.8739681677
 20
239.9120064557
 30
0.0
 11
180.8782470606
 21
239.900978054
 31
0.0
  0
ARC
  5
4B0
330
1F
100
AcDbEntity
  8
0
  6
Continuous
 62
     7
370
    30
100
AcDbCircle
 10
181.7886563667
 20
239.5322180677
 30
0.0
 40
0.9255384712351286
100
AcDbArc
 50
305.5948571082
 51
0.3428294717
  0
LINE
  5
4B1
330
1F
100
AcDbEntity
  8
0
  6
Continuous
 62
     7
370
    30
100
AcDbLine
 10
181.4151462149
 20
240.2033385737
 30
0.0
 11
181.5927309733
 21
240.1008210748
 31
0.0
  0
LINE
  5
4B2
330
1F
100
AcDbEntity
  8
0
  6
Continuous
 62
     7
370
    30
100
AcDbLine
 10
181.2204537873
 20
240.0985297923
 30
0.0
 11
180.8782470606
 21
239.900978054
 31
0.0
  0
LINE
  5
4B3
330
1F
100
AcDbEntity
  8
0
  6
Continuous
 62
     7
370
    30
100
AcDbLine
 10
181.901776362
 20
254.2650398069
 30
0.0
 11
178.6161016066
 21
256.1618194691
 31
0.0
  0
LINE
  5
4B4
330
1F
100
AcDbEntity
  8
0
  6
Continuous
 62
     7
370
    30
100
AcDbLine
 10
178.6161016066
 20
256.1618194691
 30
0.0
 11
178.6161016066
 21
255.718225495
 31
0.0
  0
LINE
  5
4B5
330
1F
100
AcDbEntity
  8
0
  6
Continuous
 62
     7
370
    30
100
AcDbLine
 10
183.4625633951
 20
241.3200395832
 30
0.0
 11
183.7779811898
 21
241.1379527662
 31
0.0
  0
LINE
  5
4B6
330
1F
100
AcDbEntity
  8
0
  6
Continuous
 62
     7
370
    30
100
AcDbLine
 10
183.7779811898
 20
241.1379527662
 30
0.0
 11
183.7779811898
 21
254.4475682043
 31
0.0
  0
LINE
  5
4B7
330
1F
100
AcDbEntity
  8
0
  6
Continuous
 62
     7
370
    30
100
AcDbLine
 10
183.7779811898
 20
254.4475682043
 30
0.0
 11
182.6466102861
 21
255.1006947248
 31
0.0
  0
LINE
  5
4B8
330
1F
100
AcDbEntity
  8
0
  6
Continuous
 62
     7
370
    30
100
AcDbLine
 10
182.6466102861
 20
255.1006947248
 30
0.0
 11
182.6466102861
 21
254.6950231339
 31
0.0
  0
LINE
  5
4B9
330
1F
100
AcDbEntity
  8
0
  6
Continuous
 62
     7
370
    30
100
AcDbLine
 10
185.439681937
 20
269.2883532679
 30
0.0
 11
176.9544006536
 21
274.1868018864
 31
0.0
  0
LINE
  5
4BA
330
1F
100
AcDbEntity
  8
0
  6
Continuous
 62
     7
370
    30
100
AcDbLine
 10
185.439681937
 20
224.3786088575
 30
0.0
 11
185.439681937
 21
269.2883532679
 31
0.0
  0
LINE
  5
4BB
330
1F
100
AcDbEntity
  8
0
  6
Continuous
 62
     7
370
    30
100
AcDbLine
 10
176.9544006536
 20
229.277057476
 30
0.0
 11
185.439681937
 21
224.3786088575
 31
0.0
  0
LINE
  5
4BC
330
1F
100
AcDbEntity
  8
0
  6
Continuous
 62
     7
370
    30
100
AcDbLine
 10
176.9544006536
 20
274.1868018864
 30
0.0
 11
176.9544006536
 21
254.7589461359
 31
0.0
  0
LINE
  5
4BD
330
1F
100
AcDbEntity
  8
0
  6
Continuous
 62
     7
370
    30
100
AcDbLine
 10
176.9544006536
 20
238.3896675711
 30
0.0
 11
176.9544006536
 21
229.277057476
 31
0.0
  0
LWPOLYLINE
  5
4BE
330
1F
100
AcDbEntity
  8
0
  6
Continuous
 62
     7
370
    30
100
AcDbPolyline
 90
       43
 70
   128
 43
0.0
 10
181.197041213
 20
266.7566795287
 10
181.4710523631
 20
266.6222074917
 10
181.7389420128
 20
266.5381655473
 10
181.9947269559
 20
266.5064290059
 10
182.2326926724
 20
266.527706653
 10
182.4475237203
 20
266.6015232709
 10
182.6344209566
 20
266.7262310566
 10
182.7892095383
 20
266.8990430921
 10
182.9084317774
 20
267.1160983731
 10
182.9894245201
 20
267.3725509802
 10
183.030378086
 20
267.662669895
 10
183.030378086
 20
267.9799745573
 10
182.9894245201
 20
268.3173774529
 10
182.9084317774
 20
268.6673407692
 10
182.7892095383
 20
269.0220486385
 10
182.6344209566
 20
269.3735757664
 10
182.4475237203
 20
269.7140705079
 10
182.2326926724
 20
270.0359257742
 10
181.9947269559
 20
270.3319527893
 10
181.7389420128
 20
270.595539257
 10
181.4710523631
 20
270.8207961185
 10
181.197041213
 20
271.0026906214
 10
180.9230303921
 20
271.1371624683
 10
180.6551405778
 20
271.2212045078
 10
180.3993557993
 20
271.2529409542
 10
180.1613900828
 20
271.2316633071
 10
179.9465590349
 20
271.1578466892
 10
179.759661634
 20
271.0331389985
 10
179.6048730523
 20
270.860326963
 10
179.4856508131
 20
270.643270161
 10
179.4046582351
 20
270.3868189799
 10
179.3637045046
 20
270.0967001601
 10
179.3637045046
 20
269.7793954978
 10
179.4046582351
 20
269.4419925072
 10
179.4856508131
 20
269.092027765
 10
179.6048730523
 20
268.7373214166
 10
179.759661634
 20
268.3857942887
 10
179.9465590349
 20
268.0452994521
 10
180.1613900828
 20
267.7234441859
 10
180.3993557993
 20
267.4274171707
 10
180.6551405778
 20
267.1638307981
 10
180.9230303921
 20
266.9385738416
 10
181.197041213
 20
266.7566795287
  0
LWPOLYLINE
  5
4BF
330
1F
100
AcDbEntity
  8
0
  6
Continuous
 62
     7
370
    30
100
AcDbPolyline
 90
       39
 70
   128
 43
0.0
 10
181.197041213
 20
256.5090914964
 10
181.4472710038
 20
256.3885808475
 10
181.6906753102
 20
256.3192435776
 10
181.9206143569
 20
256.3029728064
 10
182.1308164955
 20
256.3402118656
 10
182.3155474496
 20
256.4299440486
 10
182.469768366
 20
256.5697230439
 10
182.5892727915
 20
256.7557345451
 10
182.6708009308
 20
256.9829059589
 10
182.71212855
 20
257.2450398745
 10
182.71212855
 20
257.5349861238
 10
182.6708009308
 20
257.8448358928
 10
182.5892727915
 20
258.1661376927
 10
182.469768366
 20
258.4901260667
 10
182.3155474496
 20
258.8079647418
 10
182.1308164955
 20
259.1109827445
 10
181.9206143569
 20
259.3909160271
 10
181.6906753102
 20
259.6401272283
 10
181.4472710038
 20
259.8518185887
 10
181.197041213
 20
260.0202171067
 10
180.9468114221
 20
260.1407277556
 10
180.703407445
 20
260.2100648354
 10
180.4734682336
 20
260.2263357016
 10
180.2632662597
 20
260.1890965474
 10
180.0785353056
 20
260.0993643644
 10
179.9243142246
 20
259.9595854642
 10
179.8048097991
 20
259.773573963
 10
179.723281989
 20
259.546402359
 10
179.6819543699
 20
259.2842684435
 10
179.6819543699
 20
258.9943221942
 10
179.723281989
 20
258.6844724252
 10
179.8048097991
 20
258.3631708153
 10
179.9243142246
 20
258.0391824413
 10
180.0785353056
 20
257.7213436712
 10
180.2632662597
 20
257.4183256685
 10
180.4734682336
 20
257.138392481
 10
180.703407445
 20
256.8891811847
 10
180.9468114221
 20
256.6774900144
 10
181.197041213
 20
256.5090914964
  0
LWPOLYLINE
  5
4C0
330
1F
100
AcDbEntity
  8
0
  6
Continuous
 62
     7
370
    30
100
AcDbPolyline
 90
       43
 70
   128
 43
0.0
 10
181.197041213
 20
227.5627202175
 10
181.4710523631
 20
227.4282481805
 10
181.7389420128
 20
227.3442062361
 10
181.9947269559
 20
227.3124696947
 10
182.2326926724
 20
227.3337473418
 10
182.4475237203
 20
227.4075639597
 10
182.6344209566
 20
227.5322717454
 10
182.7892095383
 20
227.7050837809
 10
182.9084317774
 20
227.9221405829
 10
182.9894245201
 20
228.178591669
 10
183.030378086
 20
228.4687105838
 10
183.030378086
 20
228.7860152461
 10
182.9894245201
 20
229.1234181417
 10
182.9084317774
 20
229.4733829789
 10
182.7892095383
 20
229.8280893273
 10
182.6344209566
 20
230.1796164552
 10
182.4475237203
 20
230.5201111967
 10
182.2326926724
 20
230.841966463
 10
181.9947269559
 20
231.1379934781
 10
181.7389420128
 20
231.4015799458
 10
181.4710523631
 20
231.6268368073
 10
181.197041213
 20
231.8087313102
 10
180.9230303921
 20
231.9432031571
 10
180.6551405778
 20
232.0272451966
 10
180.3993557993
 20
232.058981643
 10
180.1613900828
 20
232.0377039959
 10
179.9465590349
 20
231.963887378
 10
179.759661634
 20
231.8391796873
 10
179.6048730523
 20
231.6663676518
 10
179.4856508131
 20
231.4493123708
 10
179.4046582351
 20
231.1928596687
 10
179.3637045046
 20
230.9027408489
 10
179.3637045046
 20
230.5854361866
 10
179.4046582351
 20
230.248033196
 10
179.4856508131
 20
229.8980699747
 10
179.6048730523
 20
229.5433621054
 10
179.759661634
 20
229.1918349775
 10
179.9465590349
 20
228.8513401409
 10
180.1613900828
 20
228.5294848747
 10
180.3993557993
 20
228.2334578595
 10
180.6551405778
 20
227.9698714869
 10
180.9230303921
 20
227.7446145304
 10
181.197041213
 20
227.5627202175
  0
LWPOLYLINE
  5
4C1
330
1F
100
AcDbEntity
  8
0
  6
Continuous
 62
     7
370
    30
100
AcDbPolyline
 90
       15
 70
   128
 43
0.0
 10
181.197041213
 20
238.5451937322
 10
181.4472710038
 20
238.4246830834
 10
181.6906753102
 20
238.3553458135
 10
181.9206143569
 20
238.3390750423
 10
182.1308164955
 20
238.3763141015
 10
182.3155474496
 20
238.4660462845
 10
182.469768366
 20
238.6058252797
 10
182.5892727915
 20
238.7918367809
 10
182.6708009308
 20
239.0190081948
 10
182.71212855
 20
239.2811421104
 10
182.71212855
 20
239.5710883597
 10
182.6708009308
 20
239.8809381286
 10
182.5892727915
 20
240.2022399286
 10
182.469768366
 20
240.5262283026
 10
182.3791351902
 20
240.7222825309
  0
ARC
  5
4C2
330
1F
100
AcDbEntity
  8
0
  6
Continuous
 62
     7
370
    30
100
AcDbCircle
 10
182.8011582498
 20
241.1322551498
 30
0.0
 40
3.04402336487382
100
AcDbArc
 50
211.3256955549
 51
238.1988642384
  0
LINE
  5
4C3
330
1F
100
AcDbEntity
  8
0
  6
Continuous
 62
     7
370
    30
100
AcDbLine
 10
185.439681937
 20
269.2883532679
 30
0.0
 11
186.5003422826
 21
269.9006594521
 31
0.0
  0
LINE
  5
4C4
330
1F
100
AcDbEntity
  8
0
  6
Continuous
 62
     7
370
    30
100
AcDbLine
 10
176.9544006536
 20
274.1868018864
 30
0.0
 11
178.0150609992
 21
274.7991080706
 31
0.0
  0
LINE
  5
4C5
330
1F
100
AcDbEntity
  8
0
  6
Continuous
 62
     7
370
    30
100
AcDbLine
 10
186.5003422826
 20
269.9006594521
 30
0.0
 11
178.0150609992
 21
274.7991080706
 31
0.0
  0
LINE
  5
4C6
330
1F
100
AcDbEntity
  8
0
  6
Continuous
 62
     7
370
    30
100
AcDbLine
 10
185.439681937
 20
224.3786088575
 30
0.0
 11
186.5003422826
 21
224.9909150418
 31
0.0
  0
LINE
  5
4C7
330
1F
100
AcDbEntity
  8
0
  6
Continuous
 62
     7
370
    30
100
AcDbLine
 10
186.5003422826
 20
224.9909150418
 30
0.0
 11
186.5003422826
 21
269.9006594521
 31
0.0
  0
LWPOLYLINE
  5
4C8
330
1F
100
AcDbEntity
  8
0
  6
Continuous
 62
     7
370
    30
100
AcDbPolyline
 90
        7
 70
   128
 43
0.0
 10
182.0632471948
 20
268.2569907738
 10
182.265394017
 20
268.1648294721
 10
182.458705806
 20
268.1257643813
 10
182.6347344238
 20
268.1415044195
 10
182.7857860946
 20
268.211359505
 10
182.9052595685
 20
268.3322795624
 10
182.9652954493
 20
268.440048681
  0
LWPOLYLINE
  5
4C9
330
1F
100
AcDbEntity
  8
0
  6
Continuous
 62
     7
370
    30
100
AcDbPolyline
 90
       15
 70
   128
 43
0.0
 10
181.7005966124
 20
270.6308089611
 10
181.6677889129
 20
270.6337057177
 10
181.4917602952
 20
270.6179656796
 10
181.3407086243
 20
270.5481090731
 10
181.221235315
 20
270.4271904416
 10
181.1385618021
 20
270.2604906442
 10
181.0963016839
 20
270.0553001024
 10
181.0963016839
 20
269.8205817101
 10
181.1385618021
 20
269.5665971535
 10
181.221235315
 20
269.3044460708
 10
181.3407086243
 20
269.0455849717
 10
181.4917602952
 20
268.8013293391
 10
181.6677889129
 20
268.582350985
 10
181.8611007019
 20
268.3982230349
 10
182.0632471948
 20
268.2569907738
  0
ARC
  5
4CA
330
1F
100
AcDbEntity
  8
0
  6
Continuous
 62
     7
370
    30
100
AcDbCircle
 10
182.6756416534
 20
268.9694632013
 30
0.0
 40
0.7313915127141712
100
AcDbArc
 50
235.1498961464
 51
283.0676811081
  0
LWPOLYLINE
  5
4CB
330
1F
100
AcDbEntity
  8
0
  6
Continuous
 62
     7
370
    30
100
AcDbPolyline
 90
       12
 70
   128
 43
0.0
 10
181.4799384334
 20
270.614713411
 10
181.4156896788
 20
270.5394465563
 10
181.3330161659
 20
270.3727467589
 10
181.2907560477
 20
270.1675562172
 10
181.2907560477
 20
269.9328378249
 10
181.3330161659
 20
269.6788532683
 10
181.4156896788
 20
269.4167021856
 10
181.535162988
 20
269.1578410865
 10
181.6862146589
 20
268.9135854539
 10
181.8622432766
 20
268.6946070998
 10
182.0555550657
 20
268.5104791497
 10
182.2577015586
 20
268.3692468886
  0
LWPOLYLINE
  5
4CC
330
1F
100
AcDbEntity
  8
0
  6
Continuous
 62
     7
370
    30
100
AcDbPolyline
 90
        7
 70
   128
 43
0.0
 10
182.0632471948
 20
229.0630329835
 10
182.265394017
 20
228.9708701609
 10
182.458705806
 20
228.9318050701
 10
182.6347344238
 20
228.9475451083
 10
182.7857860946
 20
229.0174017148
 10
182.9052595685
 20
229.1383202512
 10
182.9652954493
 20
229.2460893698
  0
LWPOLYLINE
  5
4CD
330
1F
100
AcDbEntity
  8
0
  6
Continuous
 62
     7
370
    30
100
AcDbPolyline
 90
       15
 70
   128
 43
0.0
 10
181.7005966124
 20
231.4368496498
 10
181.6677889129
 20
231.4397464065
 10
181.4917602952
 20
231.4240063684
 10
181.3407086243
 20
231.3541512828
 10
181.221235315
 20
231.2332311304
 10
181.1385618021
 20
231.0665328539
 10
181.0963016839
 20
230.8613407912
 10
181.0963016839
 20
230.6266223989
 10
181.1385618021
 20
230.3726393632
 10
181.221235315
 20
230.1104867596
 10
181.3407086243
 20
229.8516271814
 10
181.4917602952
 20
229.6073700279
 10
181.6677889129
 20
229.3883916738
 10
181.8611007019
 20
229.2042637237
 10
182.0632471948
 20
229.0630329835
  0
ARC
  5
4CE
330
1F
100
AcDbEntity
  8
0
  6
Continuous
 62
     7
370
    30
100
AcDbCircle
 10
182.6756418738
 20
229.7754969021
 30
0.0
 40
0.7313846559113798
100
AcDbArc
 50
235.1495010739
 51
283.0677880603
  0
LWPOLYLINE
  5
4CF
330
1F
100
AcDbEntity
  8
0
  6
Continuous
 62
     7
370
    30
100
AcDbPolyline
 90
       12
 70
   128
 43
0.0
 10
181.4799384334
 20
231.4207540998
 10
181.4156896788
 20
231.3454872451
 10
181.3330161659
 20
231.1787889687
 10
181.2907560477
 20
230.9735969059
 10
181.2907560477
 20
230.7388785137
 10
181.3330161659
 20
230.484895478
 10
181.4156896788
 20
230.2227428744
 10
181.535162988
 20
229.9638832962
 10
181.6862146589
 20
229.7196261427
 10
181.8622432766
 20
229.5006477886
 10
182.0555550657
 20
229.3165198385
 10
182.2577015586
 20
229.1752890983
  0
LWPOLYLINE
  5
4D0
330
1F
100
AcDbEntity
  8
0
  6
Continuous
 62
     7
370
    30
100
AcDbPolyline
 90
       30
 70
   128
 43
0.0
 10
189.3293561402
 20
250.3028770904
 10
189.3086913428
 20
250.5103627266
 10
189.2476635293
 20
250.6842876946
 10
189.1491261732
 20
250.8165193365
 10
189.0176866163
 20
250.9008746566
 10
188.8594910546
 20
250.9334092703
 10
188.6819365892
 20
250.9126020804
 10
188.4933251616
 20
250.8394257954
 10
188.302476329
 20
250.7173021462
 10
188.1183136988
 20
250.5519414668
 10
187.9494487283
 20
250.351075811
 10
187.8037770367
 20
250.124097343
 10
187.6881106086
 20
249.8816196794
 10
187.6078577407
 20
249.6349806243
 10
187.5667704903
 20
249.3957125425
 10
187.5667704903
 20
249.1750035639
 10
187.6078577407
 20
248.9831738117
 10
187.6881106086
 20
248.8291927457
 10
187.8037770367
 20
248.7202606973
 10
187.9494487283
 20
248.6614711844
 10
188.1183136988
 20
248.6555728736
 10
188.302476329
 20
248.702841841
 10
188.4933251616
 20
248.8010675636
 10
188.6819365892
 20
248.9456573978
 10
188.8594910546
 20
249.12985023
 10
189.0176866163
 20
249.3450335514
 10
189.1491261732
 20
249.5811457537
 10
189.2476635293
 20
249.8271462054
 10
189.3086913428
 20
250.071532387
 10
189.3293561402
 20
250.3028770904
  0
LINE
  5
4D1
330
1F
100
AcDbEntity
  8
0
  6
Continuous
 62
     7
370
    30
100
AcDbLine
 10
187.7737210654
 20
261.6121198547
 30
0.0
 11
187.7737210654
 21
261.7345946847
 31
0.0
  0
LINE
  5
4D2
330
1F
100
AcDbEntity
  8
0
  6
Continuous
 62
     7
370
    30
100
AcDbLine
 10
187.7737210654
 20
261.7345946847
 30
0.0
 11
186.5003422826
 21
260.9994887606
 31
0.0
  0
LINE
  5
4D3
330
1F
100
AcDbEntity
  8
0
  6
Continuous
 62
     7
370
    30
100
AcDbLine
 10
196.1882919554
 20
242.7084038215
 30
0.0
 11
196.1882919554
 21
241.932689847
 31
0.0
  0
LINE
  5
4D4
330
1F
100
AcDbEntity
  8
0
  6
Continuous
 62
     7
370
    30
100
AcDbLine
 10
196.1882919554
 20
241.932689847
 30
0.0
 11
196.2943693169
 21
241.9939270044
 31
0.0
  0
LINE
  5
4D5
330
1F
100
AcDbEntity
  8
0
  6
Continuous
 62
     7
370
    30
100
AcDbLine
 10
197.6732163076
 20
243.4431583339
 30
0.0
 11
197.6732163076
 21
243.5656324034
 31
0.0
  0
LINE
  5
4D6
330
1F
100
AcDbEntity
  8
0
  6
Continuous
 62
     7
370
    30
100
AcDbLine
 10
197.6732163076
 20
243.5656324034
 30
0.0
 11
196.1882919554
 21
242.7084038215
 31
0.0
  0
LINE
  5
4D7
330
1F
100
AcDbEntity
  8
0
  6
Continuous
 62
     7
370
    30
100
AcDbLine
 10
198.5217443206
 20
243.3614179272
 30
0.0
 11
198.5217443206
 21
267.8576417362
 31
0.0
  0
ARC
  5
4D8
330
1F
100
AcDbEntity
  8
0
  6
Continuous
 62
     7
370
    30
100
AcDbCircle
 10
196.9865262533
 20
243.4312789768
 30
0.0
 40
1.536806780462891
100
AcDbArc
 50
302.6055131684
 51
357.3945174955
  0
LINE
  5
4D9
330
1F
100
AcDbEntity
  8
0
  6
Continuous
 62
     7
370
    30
100
AcDbLine
 10
186.5003422826
 20
235.6050685424
 30
0.0
 11
197.8146374236
 21
242.1366720982
 31
0.0
  0
LINE
  5
4DA
330
1F
100
AcDbEntity
  8
0
  6
Continuous
 62
     7
370
    30
100
AcDbLine
 10
197.8146374236
 20
268.2659793196
 30
0.0
 11
186.5003422826
 21
261.7343757638
 31
0.0
  0
ARC
  5
4DB
330
1F
100
AcDbEntity
  8
0
  6
Continuous
 62
     7
370
    30
100
AcDbCircle
 10
198.0906696012
 20
267.9275690875
 30
0.0
 40
0.4367095696709268
100
AcDbArc
 50
350.7859504104
 51
129.2032054162
  0
LINE
  5
4DC
330
1F
100
AcDbEntity
  8
0
  6
Continuous
 62
     7
370
    30
100
AcDbLine
 10
196.1882919554
 20
266.592223062
 30
0.0
 11
196.1882919554
 21
265.8165090875
 31
0.0
  0
LINE
  5
4DD
330
1F
100
AcDbEntity
  8
0
  6
Continuous
 62
     7
370
    30
100
AcDbLine
 10
196.1882919554
 20
265.8165090875
 30
0.0
 11
196.2943693169
 21
265.8777462448
 31
0.0
  0
LINE
  5
4DE
330
1F
100
AcDbEntity
  8
0
  6
Continuous
 62
     7
370
    30
100
AcDbLine
 10
197.6732163076
 20
267.3269768138
 30
0.0
 11
197.6732163076
 21
267.4494516439
 31
0.0
  0
LINE
  5
4DF
330
1F
100
AcDbEntity
  8
0
  6
Continuous
 62
     7
370
    30
100
AcDbLine
 10
197.6732163076
 20
267.4494516439
 30
0.0
 11
196.1882919554
 21
266.592223062
 31
0.0
  0
LWPOLYLINE
  5
4E0
330
1F
100
AcDbEntity
  8
0
  6
Continuous
 62
     7
370
    30
100
AcDbPolyline
 90
       30
 70
   128
 43
0.0
 10
194.6326568806
 20
253.3644074413
 10
194.6533216779
 20
253.1569218051
 10
194.7143494914
 20
252.9829968372
 10
194.8128868476
 20
252.8507651953
 10
194.9443264045
 20
252.7664098751
 10
195.1025219662
 20
252.7338752614
 10
195.2800764315
 20
252.7546824514
 10
195.4686878592
 20
252.8278587363
 10
195.6595366918
 20
252.9499823855
 10
195.843699322
 20
253.115343065
 10
196.0125642925
 20
253.3162087207
 10
196.158235984
 20
253.5431871887
 10
196.2739024121
 20
253.7856648524
 10
196.3541552801
 20
254.0323039074
 10
196.3952425305
 20
254.2715719892
 10
196.3952425305
 20
254.4922809678
 10
196.3541552801
 20
254.68411072
 10
196.2739024121
 20
254.8380917861
 10
196.158235984
 20
254.9470238344
 10
196.0125642925
 20
255.0058133474
 10
195.843699322
 20
255.0117116581
 10
195.6595366918
 20
254.9644426907
 10
195.4686878592
 20
254.8662169681
 10
195.2800764315
 20
254.721627134
 10
195.1025219662
 20
254.5374343018
 10
194.9443264045
 20
254.3222509803
 10
194.8128868476
 20
254.086138778
 10
194.7143494914
 20
253.8401383263
 10
194.6533216779
 20
253.5957521447
 10
194.6326568806
 20
253.3644074413
  0
LINE
  5
4E1
330
1F
100
AcDbEntity
  8
0
  6
Continuous
 62
     7
370
    30
100
AcDbLine
 10
187.7737210654
 20
237.7283013747
 30
0.0
 11
187.7737210654
 21
237.8507754443
 31
0.0
  0
LINE
  5
4E2
330
1F
100
AcDbEntity
  8
0
  6
Continuous
 62
     7
370
    30
100
AcDbLine
 10
187.7737210654
 20
237.8507754443
 30
0.0
 11
186.5003422826
 21
237.1156695201
 31
0.0
  0
LWPOLYLINE
  5
4E3
330
1F
100
AcDbEntity
  8
0
  6
Continuous
 62
     7
370
    30
100
AcDbPolyline
 90
       10
 70
   128
 43
0.0
 10
189.7712977862
 20
258.8254803168
 10
189.6503755144
 20
258.7310518681
 10
189.5440380278
 20
258.5987688698
 10
189.4651116332
 20
258.4445879568
 10
189.423115756
 20
258.2871043103
 10
189.423115756
 20
258.1453129624
 10
189.4651116332
 20
258.036317484
 10
189.5440380278
 20
257.9732622861
 10
189.6503755144
 20
257.9637539365
 10
189.7712977862
 20
258.0089393711
  0
LINE
  5
4E4
330
1F
100
AcDbEntity
  8
0
  6
Continuous
 62
     7
370
    30
100
AcDbLine
 10
189.7712977862
 20
258.0089393711
 30
0.0
 11
194.1907152345
 21
260.5602147586
 31
0.0
  0
LWPOLYLINE
  5
4E5
330
1F
100
AcDbEntity
  8
0
  6
Continuous
 62
     7
370
    30
100
AcDbPolyline
 90
       10
 70
   128
 43
0.0
 10
194.1907152345
 20
260.5602147586
 10
194.3116375063
 20
260.6546432072
 10
194.417974993
 20
260.7869262055
 10
194.4969013876
 20
260.941107879
 10
194.5388972648
 20
261.0985907651
 10
194.5388972648
 20
261.240382113
 10
194.4969013876
 20
261.3493783519
 10
194.417974993
 20
261.4124327893
 10
194.3116375063
 20
261.4219411389
 10
194.1907152345
 20
261.3767557043
  0
LINE
  5
4E6
330
1F
100
AcDbEntity
  8
0
  6
Continuous
 62
     7
370
    30
100
AcDbLine
 10
194.1907152345
 20
261.3767557043
 30
0.0
 11
189.7712977862
 21
258.8254803168
 31
0.0
  0
LWPOLYLINE
  5
4E7
330
1F
100
AcDbEntity
  8
0
  6
Continuous
 62
     7
370
    30
100
AcDbPolyline
 90
       10
 70
   128
 43
0.0
 10
187.2964241403
 20
253.0078591591
 10
187.1755015392
 20
252.9134305204
 10
187.0691643819
 20
252.7811477121
 10
186.9902378226
 20
252.6269663239
 10
186.9482421101
 20
252.4694831526
 10
186.9482421101
 20
252.3276921849
 10
186.9902378226
 20
252.2186962312
 10
187.0691643819
 20
252.1556413185
 10
187.1755015392
 20
252.1461329689
 10
187.2964241403
 20
252.1913184035
  0
LINE
  5
4E8
330
1F
100
AcDbEntity
  8
0
  6
Continuous
 62
     7
370
    30
100
AcDbLine
 10
187.2964241403
 20
252.1913184035
 30
0.0
 11
196.6655888804
 21
257.6000220805
 31
0.0
  0
LWPOLYLINE
  5
4E9
330
1F
100
AcDbEntity
  8
0
  6
Continuous
 62
     7
370
    30
100
AcDbPolyline
 90
       10
 70
   128
 43
0.0
 10
196.6655888804
 20
257.6000220805
 10
196.7865114815
 20
257.6944509093
 10
196.8928486389
 20
257.8267335275
 10
196.9717751981
 20
257.9809151059
 10
197.0137709107
 20
258.1383982771
 10
197.0137709107
 20
258.2801892448
 10
196.9717751981
 20
258.3891851985
 10
196.8928486389
 20
258.4522399211
 10
196.7865114815
 20
258.4617484608
 10
196.6655888804
 20
258.4165628361
  0
LINE
  5
4EA
330
1F
100
AcDbEntity
  8
0
  6
Continuous
 62
     7
370
    30
100
AcDbLine
 10
196.6655888804
 20
258.4165628361
 30
0.0
 11
187.2964241403
 21
253.0078591591
 31
0.0
  0
LWPOLYLINE
  5
4EB
330
1F
100
AcDbEntity
  8
0
  6
Continuous
 62
     7
370
    30
100
AcDbPolyline
 90
       10
 70
   128
 43
0.0
 10
187.2964241403
 20
246.0672624513
 10
187.1755015392
 20
245.9728336224
 10
187.0691643819
 20
245.8405510043
 10
186.9902378226
 20
245.6863694259
 10
186.9482421101
 20
245.5288862546
 10
186.9482421101
 20
245.3870952869
 10
186.9902378226
 20
245.2780993333
 10
187.0691643819
 20
245.2150446106
 10
187.1755015392
 20
245.2055360709
 10
187.2964241403
 20
245.2507216956
  0
LINE
  5
4EC
330
1F
100
AcDbEntity
  8
0
  6
Continuous
 62
     7
370
    30
100
AcDbLine
 10
187.2964241403
 20
245.2507216956
 30
0.0
 11
196.6655888804
 21
250.6594253726
 31
0.0
  0
LWPOLYLINE
  5
4ED
330
1F
100
AcDbEntity
  8
0
  6
Continuous
 62
     7
370
    30
100
AcDbPolyline
 90
       10
 70
   128
 43
0.0
 10
196.6655888804
 20
250.6594253726
 10
196.7865114815
 20
250.7538540114
 10
196.8928486389
 20
250.8861368196
 10
196.9717751981
 20
251.0403182079
 10
197.0137709107
 20
251.1978013792
 10
197.0137709107
 20
251.3395923468
 10
196.9717751981
 20
251.4485883005
 10
196.8928486389
 20
251.5116432132
 10
196.7865114815
 20
251.5211515628
 10
196.6655888804
 20
251.4759661282
  0
LINE
  5
4EE
330
1F
100
AcDbEntity
  8
0
  6
Continuous
 62
     7
370
    30
100
AcDbLine
 10
196.6655888804
 20
251.4759661282
 30
0.0
 11
187.2964241403
 21
246.0672624513
 31
0.0
  0
LWPOLYLINE
  5
4EF
330
1F
100
AcDbEntity
  8
0
  6
Continuous
 62
     7
370
    30
100
AcDbPolyline
 90
       10
 70
   128
 43
0.0
 10
189.7712977862
 20
243.1070697732
 10
189.6503755144
 20
243.0126413245
 10
189.5440380278
 20
242.8803583262
 10
189.4651116332
 20
242.7261766527
 10
189.423115756
 20
242.5686937666
 10
189.423115756
 20
242.4269024187
 10
189.4651116332
 20
242.3179061799
 10
189.5440380278
 20
242.2548517424
 10
189.6503755144
 20
242.2453433928
 10
189.7712977862
 20
242.2905288275
  0
LINE
  5
4F0
330
1F
100
AcDbEntity
  8
0
  6
Continuous
 62
     7
370
    30
100
AcDbLine
 10
189.7712977862
 20
242.2905288275
 30
0.0
 11
194.1907152345
 21
244.8418042149
 31
0.0
  0
LWPOLYLINE
  5
4F1
330
1F
100
AcDbEntity
  8
0
  6
Continuous
 62
     7
370
    30
100
AcDbPolyline
 90
       10
 70
   128
 43
0.0
 10
194.1907152345
 20
244.8418042149
 10
194.3116375063
 20
244.9362326636
 10
194.417974993
 20
245.0685156619
 10
194.4969013876
 20
245.2226965749
 10
194.5388972648
 20
245.3801802215
 10
194.5388972648
 20
245.5219715694
 10
194.4969013876
 20
245.6309670478
 10
194.417974993
 20
245.6940222457
 10
194.3116375063
 20
245.7035305953
 10
194.1907152345
 20
245.6583451606
  0
LINE
  5
4F2
330
1F
100
AcDbEntity
  8
0
  6
Continuous
 62
     7
370
    30
100
AcDbLine
 10
194.1907152345
 20
245.6583451606
 30
0.0
 11
189.7712977862
 21
243.1070697732
 31
0.0
  0
LINE
  5
4F3
330
1F
100
AcDbEntity
  8
0
  6
Continuous
 62
     7
370
    30
100
AcDbLine
 10
197.28430758
 20
268.5721322216
 30
0.0
 11
186.5003426119
 21
262.346681758
 31
0.0
  0
LWPOLYLINE
  5
4F4
330
1F
100
AcDbEntity
  8
0
  6
Continuous
 62
     7
370
    30
100
AcDbPolyline
 90
        3
 70
   128
 43
0.0
 10
189.4739736666
 20
258.0246544408
 10
189.5443096774
 20
258.0249844408
 10
189.6652319492
 20
258.0701698755
  0
LINE
  5
4F5
330
1F
100
AcDbEntity
  8
0
  6
Continuous
 62
     7
370
    30
100
AcDbLine
 10
189.6652319492
 20
258.0701698755
 30
0.0
 11
194.0846493975
 21
260.6214452629
 31
0.0
  0
LWPOLYLINE
  5
4F6
330
1F
100
AcDbEntity
  8
0
  6
Continuous
 62
     7
370
    30
100
AcDbPolyline
 90
        8
 70
   128
 43
0.0
 10
194.0846493975
 20
260.6214452629
 10
194.2055716693
 20
260.7158737116
 10
194.311909156
 20
260.8481567099
 10
194.3908355506
 20
261.0023383834
 10
194.4328314278
 20
261.1598212695
 10
194.4328314278
 20
261.3016126174
 10
194.3908355506
 20
261.4106088562
 10
194.3819736818
 20
261.422271101
  0
LWPOLYLINE
  5
4F7
330
1F
100
AcDbEntity
  8
0
  6
Continuous
 62
     7
370
    30
100
AcDbPolyline
 90
        3
 70
   128
 43
0.0
 10
186.9990998561
 20
252.2070331881
 10
187.0694357022
 20
252.2073634733
 10
187.1903583033
 20
252.2525489079
  0
LINE
  5
4F8
330
1F
100
AcDbEntity
  8
0
  6
Continuous
 62
     7
370
    30
100
AcDbLine
 10
187.1903583033
 20
252.2525489079
 30
0.0
 11
196.5595230434
 21
257.6612525848
 31
0.0
  0
LWPOLYLINE
  5
4F9
330
1F
100
AcDbEntity
  8
0
  6
Continuous
 62
     7
370
    30
100
AcDbPolyline
 90
        8
 70
   128
 43
0.0
 10
196.5595230434
 20
257.6612525848
 10
196.6804456445
 20
257.7556814137
 10
196.7867828019
 20
257.8879640318
 10
196.8657093611
 20
258.0421456102
 10
196.9077050737
 20
258.1996287815
 10
196.9077050737
 20
258.3414197492
 10
196.8657093611
 20
258.4504157029
 10
196.8568473277
 20
258.4620786131
  0
ARC
  5
4FA
330
1F
100
AcDbEntity
  8
0
  6
Continuous
 62
     7
370
    30
100
AcDbCircle
 10
197.5772273593
 20
268.1632510358
 30
0.0
 40
0.5029769588939013
100
AcDbArc
 50
65.6928670509
 51
125.617561462
  0
LWPOLYLINE
  5
4FB
330
1F
100
AcDbEntity
  8
0
  6
Continuous
 62
     7
370
    30
100
AcDbPolyline
 90
        3
 70
   128
 43
0.0
 10
188.7990262967
 20
250.6090299924
 10
188.7783614993
 20
250.8165156286
 10
188.7462334176
 20
250.9260165781
  0
ARC
  5
4FC
330
1F
100
AcDbEntity
  8
0
  6
Continuous
 62
     7
370
    30
100
AcDbCircle
 10
187.0445538124
 20
250.6248133126
 30
0.0
 40
1.754543476581787
100
AcDbArc
 50
288.9518266144
 51
359.4845782746
  0
LWPOLYLINE
  5
4FD
330
1F
100
AcDbEntity
  8
0
  6
Continuous
 62
     7
370
    30
100
AcDbPolyline
 90
        3
 70
   128
 43
0.0
 10
186.9990998561
 20
245.2664362901
 10
187.0694357022
 20
245.2667665753
 10
187.1903583033
 20
245.3119522
  0
LINE
  5
4FE
330
1F
100
AcDbEntity
  8
0
  6
Continuous
 62
     7
370
    30
100
AcDbLine
 10
187.1903583033
 20
245.3119522
 30
0.0
 11
196.5595230434
 21
250.720655877
 31
0.0
  0
LWPOLYLINE
  5
4FF
330
1F
100
AcDbEntity
  8
0
  6
Continuous
 62
     7
370
    30
100
AcDbPolyline
 90
        8
 70
   128
 43
0.0
 10
196.5595230434
 20
250.720655877
 10
196.6804456445
 20
250.8150845157
 10
196.7867828019
 20
250.947367324
 10
196.8657093611
 20
251.1015487122
 10
196.9077050737
 20
251.2590318835
 10
196.9077050737
 20
251.4008228512
 10
196.8657093611
 20
251.5098188049
 10
196.8568473277
 20
251.5214817151
  0
ARC
  5
500
330
1F
100
AcDbEntity
  8
0
  6
Continuous
 62
     7
370
    30
100
AcDbCircle
 10
194.1808848516
 20
254.6458953794
 30
0.0
 40
1.676218183127602
100
AcDbArc
 50
287.5185140672
 51
12.4318911357
  0
LWPOLYLINE
  5
501
330
1F
100
AcDbEntity
  8
0
  6
Continuous
 62
     7
370
    30
100
AcDbPolyline
 90
        3
 70
   128
 43
0.0
 10
189.4739736666
 20
242.3062438972
 10
189.5443096774
 20
242.3065738972
 10
189.6652319492
 20
242.3517593318
  0
LINE
  5
502
330
1F
100
AcDbEntity
  8
0
  6
Continuous
 62
     7
370
    30
100
AcDbLine
 10
189.6652319492
 20
242.3517593318
 30
0.0
 11
194.0846493975
 21
244.9030347193
 31
0.0
  0
LWPOLYLINE
  5
503
330
1F
100
AcDbEntity
  8
0
  6
Continuous
 62
     7
370
    30
100
AcDbPolyline
 90
        8
 70
   128
 43
0.0
 10
194.0846493975
 20
244.9030347193
 10
194.2055716693
 20
244.997463168
 10
194.311909156
 20
245.1297461663
 10
194.3908355506
 20
245.2839270793
 10
194.4328314278
 20
245.4414107258
 10
194.4328314278
 20
245.5832020738
 10
194.3908355506
 20
245.6921975521
 10
194.3819736818
 20
245.7038605574
  0
ELLIPSE
  5
504
330
1F
100
AcDbEntity
  8
0
  6
Continuous
 62
     7
370
    30
100
AcDbEllipse
 10
182.9681875692
 20
253.9796925122
 30
0.0
 11
-0.1217686830514992
 21
0.218361500505182
 31
0.0
210
0.0
220
0.0
230
0.9999999999999999
 40
0.5672183928
 41
3.935499339899681
 42
5.506295666694603
  0
ELLIPSE
  5
505
330
1F
100
AcDbEntity
  8
0
  6
Continuous
 62
     7
370
    30
100
AcDbEllipse
 10
177.4764979615
 20
251.0233539885
 30
0.0
 11
0.2499899078875955
 21
-0.1493348529055822
 31
0.0
210
0.0
220
0.0
230
0.9999999999999998
 40
0.0150421696
 41
3.935976218632679
 42
5.471865960379715
  0
ELLIPSE
  5
506
330
1F
100
AcDbEntity
  8
0
  6
Continuous
 62
     7
370
    30
100
AcDbEllipse
 10
177.293548088
 20
250.9248666744
 30
0.0
 11
-0.1251422338175985
 21
0.2165122048835997
 31
0.0
210
0.0
220
0.0
230
1.0
 40
0.577381388
 41
5.462352414849567
 42
5.497258999889703
  0
LINE
  5
507
330
1F
100
AcDbEntity
  8
0
  6
Continuous
 62
     7
370
    30
100
AcDbLine
 10
176.9546941998
 20
251.3246184586
 30
0.0
 11
177.2935482764
 21
251.129002164
 31
0.0
  0
LINE
  5
508
330
1F
100
AcDbEntity
  8
0
  6
Continuous
 62
     7
370
    30
100
AcDbLine
 10
183.1418785615
 20
241.2194777234
 30
0.0
 11
183.1418785615
 21
253.8758601008
 31
0.0
  0
ELLIPSE
  5
509
330
1F
100
AcDbEntity
  8
0
  6
Continuous
 62
     7
370
    30
100
AcDbEllipse
 10
177.1314709757
 20
251.2225338277
 30
0.0
 11
0.25000000041004
 21
-0.1443453874898637
 31
0.0
210
0.0
220
0.0
230
0.9999999999999999
 40
0.0000703729
 41
2.356235120595884
 42
3.141633282026852
  0
LINE
  5
50A
330
1F
100
AcDbEntity
  8
0
  6
Continuous
 62
     7
370
    30
100
AcDbLine
 10
176.6560561192
 20
239.9001865636
 30
0.0
 11
176.6558167383
 21
239.9065689181
 31
0.0
  0
ELLIPSE
  5
50B
330
1F
100
AcDbEntity
  8
0
  6
Continuous
 62
     7
370
    30
100
AcDbEllipse
 10
261.4243641945
 20
196.2330910642
 30
0.0
 11
75.48481894859157
 21
-75.35657298693103
 31
0.0
210
0.0
220
0.0
230
1.0
 40
0.5185663918
 41
3.545474925512653
 42
3.693101569360973
  0
ELLIPSE
  5
50C
330
1F
100
AcDbEntity
  8
0
  6
Continuous
 62
     7
370
    30
100
AcDbEllipse
 10
261.4243641945
 20
298.2499406499
 30
0.0
 11
75.48481894859306
 21
75.35657298693032
 31
0.0
210
0.0
220
0.0
230
1.0
 40
0.5185663918
 41
2.593041325497303
 42
2.663897059742798
  0
LINE
  5
50D
330
1F
100
AcDbEntity
  8
0
  6
Continuous
 62
     7
370
    30
100
AcDbLine
 10
176.8824973069
 20
239.5165301405
 30
0.0
 11
176.8834838065
 21
239.5074252838
 31
0.0
  0
LINE
  5
50E
330
1F
100
AcDbEntity
  8
0
  6
Continuous
 62
     7
370
    30
100
AcDbLine
 10
176.7700323929
 20
239.7139353223
 30
0.0
 11
176.7693297259
 21
239.71254214
 31
0.0
  0
ELLIPSE
  5
50F
330
1F
100
AcDbEntity
  8
0
  6
Continuous
 62
     7
370
    30
100
AcDbEllipse
 10
182.9681875692
 20
241.323309928
 30
0.0
 11
-0.1217686830514993
 21
0.2183615005051536
 31
0.0
210
0.0
220
0.0
230
1.0
 40
0.5672183928
 41
3.133165394739579
 42
3.93549933989948
  0
ARC
  5
510
330
1F
100
AcDbEntity
  8
0
  6
Continuous
 62
     7
370
    30
100
AcDbCircle
 10
193.7599445533
 20
270.187293554
 30
0.0
 40
0.3632260681555247
100
AcDbArc
 50
61.4254474304
 51
126.9619565228
  0
LINE
  5
511
330
1F
100
AcDbEntity
  8
0
  6
Continuous
 62
     7
370
    30
100
AcDbLine
 10
193.9336762581
 20
270.506277051
 30
0.0
 11
197.284192664
 21
268.5720651007
 31
0.0
  0
LINE
  5
512
330
1F
100
AcDbEntity
  8
0
  6
Continuous
 62
     7
370
    30
100
AcDbLine
 10
197.5671392753
 20
267.3882135719
 30
0.0
 11
197.9914144771
 21
267.1432847114
 31
0.0
  0
ARC
  5
513
330
1F
100
AcDbEntity
  8
0
  6
Continuous
 62
     7
370
    30
100
AcDbCircle
 10
197.9526821501
 20
267.0412334906
 30
0.0
 40
0.1091542249156068
100
AcDbArc
 50
290.7836621378
 51
69.2163378621
  0
LINE
  5
514
330
1F
100
AcDbEntity
  8
0
  6
Continuous
 62
     7
370
    30
100
AcDbLine
 10
197.9914144771
 20
266.9391822698
 30
0.0
 11
196.9307544607
 21
266.3268762756
 31
0.0
  0
ARC
  5
515
330
1F
100
AcDbEntity
  8
0
  6
Continuous
 62
     7
370
    30
100
AcDbCircle
 10
196.7539777553
 20
266.6680556274
 30
0.0
 40
0.3842568849431829
100
AcDbArc
 50
242.6097176949
 51
297.3902206961
  0
LINE
  5
516
330
1F
100
AcDbEntity
  8
0
  6
Continuous
 62
     7
370
    30
100
AcDbLine
 10
196.5772006829
 20
266.3268764657
 30
0.0
 11
196.1882919554
 21
266.5513886953
 31
0.0
  0
LINE
  5
517
330
1F
100
AcDbEntity
  8
0
  6
Continuous
 62
     7
370
    30
100
AcDbLine
 10
187.6676440331
 20
261.6733566128
 30
0.0
 11
188.0919192349
 21
261.4284277522
 31
0.0
  0
ARC
  5
518
330
1F
100
AcDbEntity
  8
0
  6
Continuous
 62
     7
370
    30
100
AcDbCircle
 10
188.0531873478
 20
261.326376564
 30
0.0
 40
0.1091540383998867
100
AcDbArc
 50
290.7836372108
 51
69.2165476565
  0
LINE
  5
519
330
1F
100
AcDbEntity
  8
0
  6
Continuous
 62
     7
370
    30
100
AcDbLine
 10
188.0919195642
 20
261.2243255007
 30
0.0
 11
187.0312595478
 21
260.6120195066
 31
0.0
  0
ARC
  5
51A
330
1F
100
AcDbEntity
  8
0
  6
Continuous
 62
     7
370
    30
100
AcDbCircle
 10
186.8544824943
 20
260.953200067
 30
0.0
 40
0.3842581182795103
100
AcDbArc
 50
242.6098161363
 51
297.3901838637
  0
LINE
  5
51B
330
1F
100
AcDbEntity
  8
0
  6
Continuous
 62
     7
370
    30
100
AcDbLine
 10
186.6777054407
 20
260.6120195066
 30
0.0
 11
186.5003422826
 21
260.7144090784
 31
0.0
  0
ARC
  5
51C
330
1F
100
AcDbEntity
  8
0
  6
Continuous
 62
     7
370
    30
100
AcDbCircle
 10
192.0325631529
 20
272.4461958661
 30
0.0
 40
2.480461151050721
100
AcDbArc
 50
254.479247544
 51
307.4700194578
  0
ARC
  5
51D
330
1F
100
AcDbEntity
  8
0
  6
Continuous
 62
     7
370
    30
100
AcDbCircle
 10
186.8544824943
 20
260.3407947379
 30
0.0
 40
0.384258118280015
100
AcDbArc
 50
242.6098161363
 51
297.3901838637
  0
LINE
  5
51E
330
1F
100
AcDbEntity
  8
0
  6
Continuous
 62
     7
370
    30
100
AcDbLine
 10
188.0919195642
 20
260.6119201717
 30
0.0
 11
187.0312595478
 21
259.9996141775
 31
0.0
  0
LINE
  5
51F
330
1F
100
AcDbEntity
  8
0
  6
Continuous
 62
     7
370
    30
100
AcDbLine
 10
186.6777054407
 20
259.9996141775
 30
0.0
 11
186.5003422826
 21
260.1020037493
 31
0.0
  0
ARC
  5
520
330
1F
100
AcDbEntity
  8
0
  6
Continuous
 62
     7
370
    30
100
AcDbCircle
 10
188.0400275573
 20
260.7264484424
 30
0.0
 40
0.1257358547520513
100
AcDbArc
 50
294.3749678635
 51
354.3049520626
  0
SPLINE
  5
521
330
1F
100
AcDbEntity
  8
0
  6
Continuous
 62
     7
370
    30
100
AcDbSpline
210
0.0
220
0.0
230
1.0
 70
     8
 71
     3
 72
    10
 73
     6
 74
     0
 42
0.00000001
 43
0.00000001
 40
0.0
 40
0.0
 40
0.0
 40
0.0
 40
0.0912193660400666
 40
0.5651836046643041
 40
1.0
 40
1.0
 40
1.0
 40
1.0
 10
190.6649918274607
 20
270.0658466941687
 30
0.0
 10
190.6793943065698
 20
270.0757769464713
 30
0.0
 10
190.7686302376262
 20
270.1373035283284
 30
0.0
 10
191.0001526879003
 20
270.159256870214
 30
0.0
 10
191.2495135235376
 20
270.0895434080791
 30
0.0
 10
191.3688230418503
 20
270.0561882119194
 30
0.0
  0
ARC
  5
522
330
1F
100
AcDbEntity
  8
0
  6
Continuous
 62
     7
370
    30
100
AcDbCircle
 10
196.7539777553
 20
266.0556502983
 30
0.0
 40
0.3842568849437986
100
AcDbArc
 50
242.6097176949
 51
297.390220696
  0
LINE
  5
523
330
1F
100
AcDbEntity
  8
0
  6
Continuous
 62
     7
370
    30
100
AcDbLine
 10
196.5772006829
 20
265.7144711367
 30
0.0
 11
196.1882919554
 21
265.9389833662
 31
0.0
  0
LINE
  5
524
330
1F
100
AcDbEntity
  8
0
  6
Continuous
 62
     7
370
    30
100
AcDbLine
 10
197.9914144771
 20
266.3267769407
 30
0.0
 11
196.9307544607
 21
265.7144709466
 31
0.0
  0
ARC
  5
525
330
1F
100
AcDbEntity
  8
0
  6
Continuous
 62
     7
370
    30
100
AcDbCircle
 10
197.9395214154
 20
266.4413063487
 30
0.0
 40
0.1257373259220564
100
AcDbArc
 50
294.3751917723
 51
354.3045851771
  0
LINE
  5
526
330
1F
100
AcDbEntity
  8
0
  6
Continuous
 62
     7
370
    30
100
AcDbLine
 10
195.8178004128
 20
255.0067500511
 30
0.0
 11
195.815919939
 21
255.0078356255
 31
0.0
  0
LINE
  5
527
330
1F
100
AcDbEntity
  8
0
  6
Continuous
 62
     7
370
    30
100
AcDbLine
 10
197.9914144771
 20
243.2594662314
 30
0.0
 11
197.5671392753
 21
243.5043950919
 31
0.0
  0
ARC
  5
528
330
1F
100
AcDbEntity
  8
0
  6
Continuous
 62
     7
370
    30
100
AcDbCircle
 10
197.9526821501
 20
243.1574150106
 30
0.0
 40
0.1091542249156169
100
AcDbArc
 50
290.7836621379
 51
69.2163378621
  0
LINE
  5
529
330
1F
100
AcDbEntity
  8
0
  6
Continuous
 62
     7
370
    30
100
AcDbLine
 10
196.9307544607
 20
242.4430577957
 30
0.0
 11
197.9914144771
 21
243.0553637898
 31
0.0
  0
ARC
  5
52A
330
1F
100
AcDbEntity
  8
0
  6
Continuous
 62
     7
370
    30
100
AcDbCircle
 10
196.7539777553
 20
242.7842371474
 30
0.0
 40
0.3842568849434483
100
AcDbArc
 50
242.6097176949
 51
297.390220696
  0
LINE
  5
52B
330
1F
100
AcDbEntity
  8
0
  6
Continuous
 62
     7
370
    30
100
AcDbLine
 10
196.1882919554
 20
242.6675702153
 30
0.0
 11
196.5772006829
 21
242.4430579858
 31
0.0
  0
LINE
  5
52C
330
1F
100
AcDbEntity
  8
0
  6
Continuous
 62
     7
370
    30
100
AcDbLine
 10
188.0919192349
 20
237.5446092722
 30
0.0
 11
187.6676440331
 21
237.7895381328
 31
0.0
  0
ARC
  5
52D
330
1F
100
AcDbEntity
  8
0
  6
Continuous
 62
     7
370
    30
100
AcDbCircle
 10
188.0531873478
 20
237.442558084
 30
0.0
 40
0.1091540383998766
100
AcDbArc
 50
290.7836372107
 51
69.2165476565
  0
LINE
  5
52E
330
1F
100
AcDbEntity
  8
0
  6
Continuous
 62
     7
370
    30
100
AcDbLine
 10
187.0312595478
 20
236.7282010266
 30
0.0
 11
188.0919195642
 21
237.3405070207
 31
0.0
  0
ARC
  5
52F
330
1F
100
AcDbEntity
  8
0
  6
Continuous
 62
     7
370
    30
100
AcDbCircle
 10
186.8544824943
 20
237.069381587
 30
0.0
 40
0.3842581182798384
100
AcDbArc
 50
242.6098161363
 51
297.3901838637
  0
LINE
  5
530
330
1F
100
AcDbEntity
  8
0
  6
Continuous
 62
     7
370
    30
100
AcDbLine
 10
186.5003422826
 20
236.8305905984
 30
0.0
 11
186.6777054407
 21
236.7282010266
 31
0.0
  0
ARC
  5
531
330
1F
100
AcDbEntity
  8
0
  6
Continuous
 62
     7
370
    30
100
AcDbCircle
 10
186.8544824943
 20
236.456976258
 30
0.0
 40
0.3842581182794094
100
AcDbArc
 50
242.6098161363
 51
297.3901838637
  0
LINE
  5
532
330
1F
100
AcDbEntity
  8
0
  6
Continuous
 62
     7
370
    30
100
AcDbLine
 10
187.0312595478
 20
236.1157956975
 30
0.0
 11
188.0919195642
 21
236.7281016917
 31
0.0
  0
LINE
  5
533
330
1F
100
AcDbEntity
  8
0
  6
Continuous
 62
     7
370
    30
100
AcDbLine
 10
186.5003422826
 20
236.2181852693
 30
0.0
 11
186.6777054407
 21
236.1157956975
 31
0.0
  0
ARC
  5
534
330
1F
100
AcDbEntity
  8
0
  6
Continuous
 62
     7
370
    30
100
AcDbCircle
 10
188.0400275573
 20
236.8426299624
 30
0.0
 40
0.1257358547520541
100
AcDbArc
 50
294.3749678635
 51
354.3049520626
  0
ARC
  5
535
330
1F
100
AcDbEntity
  8
0
  6
Continuous
 62
     7
370
    30
100
AcDbCircle
 10
196.7539777553
 20
242.1718318183
 30
0.0
 40
0.3842568849435705
100
AcDbArc
 50
242.6097176949
 51
297.390220696
  0
LINE
  5
536
330
1F
100
AcDbEntity
  8
0
  6
Continuous
 62
     7
370
    30
100
AcDbLine
 10
196.1882919554
 20
242.0551648862
 30
0.0
 11
196.5772006829
 21
241.8306526567
 31
0.0
  0
LINE
  5
537
330
1F
100
AcDbEntity
  8
0
  6
Continuous
 62
     7
370
    30
100
AcDbLine
 10
196.9307544607
 20
241.8306524666
 30
0.0
 11
197.9914144771
 21
242.4429584608
 31
0.0
  0
ARC
  5
538
330
1F
100
AcDbEntity
  8
0
  6
Continuous
 62
     7
370
    30
100
AcDbCircle
 10
197.9395214154
 20
242.5574878687
 30
0.0
 40
0.1257373259222402
100
AcDbArc
 50
294.3751917723
 51
354.3045851771
  0
LINE
  5
539
330
1F
100
AcDbEntity
  8
0
  6
Continuous
 62
     8
370
     0
100
AcDbLine
 10
197.8146374236
 20
268.2659793196
 30
0.0
 11
197.28430758
 21
268.5721322216
 31
0.0
  0
LINE
  5
53A
330
1F
100
AcDbEntity
  8
0
  6
Continuous
 62
     8
370
     0
100
AcDbLine
 10
189.6652319492
 20
258.0701698755
 30
0.0
 11
189.7712977862
 21
258.0089393711
 31
0.0
  0
LINE
  5
53B
330
1F
100
AcDbEntity
  8
0
  6
Continuous
 62
     8
370
     0
100
AcDbLine
 10
194.0846493975
 20
260.6214452629
 30
0.0
 11
194.1907152345
 21
260.5602147586
 31
0.0
  0
LINE
  5
53C
330
1F
100
AcDbEntity
  8
0
  6
Continuous
 62
     8
370
     0
100
AcDbLine
 10
187.1903583033
 20
252.2525489079
 30
0.0
 11
187.2964241403
 21
252.1913184035
 31
0.0
  0
LINE
  5
53D
330
1F
100
AcDbEntity
  8
0
  6
Continuous
 62
     8
370
     0
100
AcDbLine
 10
196.5595230434
 20
257.6612525848
 30
0.0
 11
196.6655888804
 21
257.6000220805
 31
0.0
  0
LINE
  5
53E
330
1F
100
AcDbEntity
  8
0
  6
Continuous
 62
     8
370
     0
100
AcDbLine
 10
187.1903583033
 20
245.3119522
 30
0.0
 11
187.2964241403
 21
245.2507216956
 31
0.0
  0
LINE
  5
53F
330
1F
100
AcDbEntity
  8
0
  6
Continuous
 62
     8
370
     0
100
AcDbLine
 10
196.5595230434
 20
250.720655877
 30
0.0
 11
196.6655888804
 21
250.6594253726
 31
0.0
  0
LINE
  5
540
330
1F
100
AcDbEntity
  8
0
  6
Continuous
 62
     8
370
     0
100
AcDbLine
 10
189.6652319492
 20
242.3517593318
 30
0.0
 11
189.7712977862
 21
242.2905288275
 31
0.0
  0
LINE
  5
541
330
1F
100
AcDbEntity
  8
0
  6
Continuous
 62
     8
370
     0
100
AcDbLine
 10
194.0846493975
 20
244.9030347193
 30
0.0
 11
194.1907152345
 21
244.8418042149
 31
0.0
  0
LINE
  5
542
330
1F
100
AcDbEntity
  8
0
  6
Continuous
 62
     8
370
     0
100
AcDbLine
 10
183.1418785615
 20
253.8758601008
 30
0.0
 11
177.6469980042
 21
250.9178039457
 31
0.0
  0
LINE
  5
543
330
1F
100
AcDbEntity
  8
0
  6
Continuous
 62
     8
370
     0
100
AcDbLine
 10
177.2935482764
 20
251.129002164
 30
0.0
 11
182.9681877768
 21
254.1838282231
 31
0.0
  0
LINE
  5
544
330
1F
100
AcDbEntity
  8
0
  6
Continuous
 62
     8
370
     0
100
AcDbLine
 10
183.0711851257
 20
254.8555935112
 30
0.0
 11
176.9546941998
 21
251.3246184586
 31
0.0
  0
LINE
  5
545
330
1F
100
AcDbEntity
  8
0
  6
Continuous
 62
     8
370
     0
100
AcDbLine
 10
182.9681877768
 20
254.1838282231
 30
0.0
 11
183.6015152985
 21
254.5494404191
 31
0.0
  0
LINE
  5
546
330
1F
100
AcDbEntity
  8
0
  6
Continuous
 62
     8
370
     0
100
AcDbLine
 10
177.2997214726
 20
238.2649204597
 30
0.0
 11
177.2997214726
 21
251.1253137378
 31
0.0
  0
LINE
  5
547
330
1F
100
AcDbEntity
  8
0
  6
Continuous
 62
     8
370
     0
100
AcDbLine
 10
177.6469980042
 20
250.9178039457
 30
0.0
 11
177.6469980042
 21
238.2614215683
 31
0.0
  0
ARC
  5
548
330
1F
100
AcDbEntity
  8
0
  6
Continuous
 62
     8
370
     0
100
AcDbCircle
 10
177.4768345745
 20
238.6080599778
 30
0.0
 40
0.3861525342703624
100
AcDbArc
 50
242.6992629615
 51
296.1462396348
  0
LINE
  5
549
330
1F
100
AcDbEntity
  8
0
  6
Continuous
 62
     8
370
     0
100
AcDbLine
 10
177.6469980042
 20
238.2614215683
 30
0.0
 11
183.1418785615
 21
241.2194777234
 31
0.0
  0
LINE
  5
54A
330
1F
100
AcDbEntity
  8
0
  6
Continuous
 62
     8
370
     0
100
AcDbLine
 10
176.7283590379
 20
239.8195720108
 30
0.0
 11
176.9546941998
 21
239.688911503
 31
0.0
  0
ELLIPSE
  5
54B
330
1F
100
AcDbEntity
  8
0
  6
Continuous
 62
     8
370
     0
100
AcDbEllipse
 10
261.2475874992
 20
196.1310400503
 30
0.0
 11
-75.26276493903289
 21
75.26276493903394
 31
0.0
210
0.0
220
0.0
230
1.0
 40
0.5176866628
 41
0.4038832943466923
 42
0.5515099381950154
  0
LINE
  5
54C
330
1F
100
AcDbEntity
  8
0
  6
Continuous
 62
     8
370
     0
100
AcDbLine
 10
176.9546941998
 20
249.8956718036
 30
0.0
 11
176.7283590379
 21
250.0263323114
 31
0.0
  0
LINE
  5
54D
330
1F
100
AcDbEntity
  8
0
  6
Continuous
 62
     8
370
     0
100
AcDbLine
 10
176.9546941998
 20
251.3246184586
 30
0.0
 11
176.9546941998
 21
249.8956718036
 31
0.0
  0
LINE
  5
54E
330
1F
100
AcDbEntity
  8
0
  6
Continuous
 62
     8
370
     0
100
AcDbLine
 10
176.9546941998
 20
238.4641004646
 30
0.0
 11
177.2997214726
 21
238.2649204597
 31
0.0
  0
LINE
  5
54F
330
1F
100
AcDbEntity
  8
0
  6
Continuous
 62
     8
370
     0
100
AcDbLine
 10
176.9546941998
 20
239.688911503
 30
0.0
 11
176.9546941998
 21
238.4641004646
 31
0.0
  0
ELLIPSE
  5
550
330
1F
100
AcDbEntity
  8
0
  6
Continuous
 62
     8
370
     0
100
AcDbEllipse
 10
177.1314709757
 20
249.9977226099
 30
0.0
 11
-0.1615979135123382
 21
0.5169985020253307
 31
0.0
210
0.0
220
0.0
230
0.9999999999999997
 40
0.3689593795
 41
0.9586251627040868
 42
1.65334870267629
  0
LINE
  5
551
330
1F
100
AcDbEntity
  8
0
  6
Continuous
 62
     8
370
     0
100
AcDbLine
 10
176.8835358315
 20
250.28106048
 30
0.0
 11
176.8824973069
 21
250.2460174234
 31
0.0
  0
ARC
  5
552
330
1F
100
AcDbEntity
  8
0
  6
Continuous
 62
     8
370
     0
100
AcDbCircle
 10
176.7573683386
 20
250.3320396867
 30
0.0
 40
0.1518456074071226
100
AcDbArc
 50
274.5180613795
 51
325.4926903752
  0
ELLIPSE
  5
553
330
1F
100
AcDbEntity
  8
0
  6
Continuous
 62
     8
370
     0
100
AcDbEllipse
 10
177.1314709757
 20
249.9977226099
 30
0.0
 11
-0.3669329071969117
 21
0.3984257417504297
 31
0.0
210
0.0
220
0.0
230
1.0
 40
0.3689626641
 41
0.7934742879504499
 42
1.488197827922732
  0
SPLINE
  5
554
330
1F
100
AcDbEntity
  8
0
  6
Continuous
 62
     8
370
     0
100
AcDbSpline
210
0.0
220
0.0
230
1.0
 70
     8
 71
     3
 72
     9
 73
     5
 74
     0
 42
0.00000001
 43
0.00000001
 40
0.0
 40
0.0
 40
0.0
 40
0.0
 40
0.5128940407135478
 40
1.0
 40
1.0
 40
1.0
 40
1.0
 10
176.7693297258795
 20
250.1806659317177
 30
0.0
 10
176.7685796553932
 20
250.2057771107521
 30
0.0
 10
176.767117227627
 20
250.2547368900459
 30
0.0
 10
176.7861249482573
 20
250.2931057124305
 30
0.0
 10
176.7953837222488
 20
250.3117953944648
 30
0.0
  0
ARC
  5
555
330
1F
100
AcDbEntity
  8
0
  6
Continuous
 62
     8
370
     0
100
AcDbCircle
 10
176.7974071599
 20
250.4419348772
 30
0.0
 40
0.1301552122525638
100
AcDbArc
 50
269.1092242344
 51
310.230821047
  0
ARC
  5
556
330
1F
100
AcDbEntity
  8
0
  6
Continuous
 62
     8
370
     0
100
AcDbCircle
 10
177.077912444
 20
250.0161419736
 30
0.0
 40
0.3497019112012588
100
AcDbArc
 50
151.93524613
 51
178.3301606469
  0
LINE
  5
557
330
1F
100
AcDbEntity
  8
0
  6
Continuous
 62
     8
370
     0
100
AcDbLine
 10
176.7953837222
 20
250.3117953945
 30
0.0
 11
176.8415262896
 21
250.3992414426
 31
0.0
  0
LWPOLYLINE
  5
558
330
1F
100
AcDbEntity
  8
0
  6
Continuous
 62
     8
370
     0
100
AcDbPolyline
 90
        3
 70
   128
 43
0.0
 10
176.881470636
 20
250.3886073467
 10
176.8696227617
 20
250.3905216581
 10
176.8415262896
 20
250.3992414426
  0
ELLIPSE
  5
559
330
1F
100
AcDbEntity
  8
0
  6
Continuous
 62
     8
370
     0
100
AcDbEllipse
 10
176.9051356131
 20
250.2752660421
 30
0.0
 11
0.2279121095167512
 21
0.3470353597132601
 31
0.0
210
0.0
220
0.0
230
0.9999999999999999
 40
0.2960584152
 41
1.24207794955052
 42
1.404541989580733
  0
ARC
  5
55A
330
1F
100
AcDbEntity
  8
0
  6
Continuous
 62
     8
370
     0
100
AcDbCircle
 10
176.8035647092
 20
250.1539406445
 30
0.0
 40
0.1481208279792189
100
AcDbArc
 50
184.0662295429
 51
239.487128632
  0
ARC
  5
55B
330
1F
100
AcDbEntity
  8
0
  6
Continuous
 62
     8
370
     0
100
AcDbCircle
 10
176.8626899986
 20
250.1139704282
 30
0.0
 40
0.2089613651211784
100
AcDbArc
 50
108.7899196792
 51
171.8933187775
  0
LINE
  5
55C
330
1F
100
AcDbEntity
  8
0
  6
Continuous
 62
     8
370
     0
100
AcDbLine
 10
176.6558167383
 20
250.1434374655
 30
0.0
 11
176.6558160798
 21
254.3723606604
 31
0.0
  0
ARC
  5
55D
330
1F
100
AcDbEntity
  8
0
  6
Continuous
 62
     8
370
     0
100
AcDbCircle
 10
176.8863583139
 20
254.327286292
 30
0.0
 40
0.2349072591673224
100
AcDbArc
 50
85.4151773454
 51
168.9373904208
  0
LINE
  5
55E
330
1F
100
AcDbEntity
  8
0
  6
Continuous
 62
     8
370
     0
100
AcDbLine
 10
176.9051355975
 20
254.5614418685
 30
0.0
 11
176.9051354329
 21
251.3805404328
 31
0.0
  0
ARC
  5
55F
330
1F
100
AcDbEntity
  8
0
  6
Continuous
 62
     8
370
     0
100
AcDbCircle
 10
176.7606518879
 20
239.9212667557
 30
0.0
 40
0.1066988721263045
100
AcDbArc
 50
191.3947285228
 51
252.3829161498
  0
SPLINE
  5
560
330
1F
100
AcDbEntity
  8
0
  6
Continuous
 62
     8
370
     0
100
AcDbSpline
210
0.0
220
0.0
230
1.0
 70
     8
 71
     3
 72
    12
 73
     8
 74
     0
 42
0.00000001
 43
0.00000001
 40
0.0
 40
0.0
 40
0.0
 40
0.0
 40
0.3378509946402527
 40
0.5621236559495749
 40
0.7331196424654173
 40
0.8721417739913043
 40
1.0
 40
1.0
 40
1.0
 40
1.0
 10
176.6558160797663
 20
254.3723606604417
 30
0.0
 10
176.6554753794319
 20
254.3991047375844
 30
0.0
 10
176.6549085149839
 20
254.4436021007919
 30
0.0
 10
176.6508959757634
 20
254.4585002587845
 30
0.0
 10
176.6465562268902
 20
254.443809757101
 30
0.0
 10
176.6420424886104
 20
254.4106670675946
 30
0.0
 10
176.6390710603653
 20
254.3772683147428
 30
0.0
 10
176.6376474953356
 20
254.3612674920146
 30
0.0
  0
LINE
  5
561
330
1F
100
AcDbEntity
  8
0
  6
Continuous
 62
     8
370
     0
100
AcDbLine
 10
179.146736809
 20
255.8554907033
 30
0.0
 11
176.9051355975
 21
254.5614418685
 31
0.0
  0
LINE
  5
562
330
1F
100
AcDbEntity
  8
0
  6
Continuous
 62
     8
370
     0
100
AcDbLine
 10
183.1418785615
 20
241.2194777234
 30
0.0
 11
183.7779811898
 21
241.5866919543
 31
0.0
  0
LINE
  5
563
330
1F
100
AcDbEntity
  8
0
  6
Continuous
 62
     8
370
     0
100
AcDbLine
 10
183.7779811898
 20
254.2430743317
 30
0.0
 11
183.1418785615
 21
253.8758601008
 31
0.0
  0
SPLINE
  5
564
330
1F
100
AcDbEntity
  8
0
  6
Continuous
 62
     8
370
     0
100
AcDbSpline
210
0.0
220
0.0
230
1.0
 70
     8
 71
     3
 72
    10
 73
     6
 74
     0
 42
0.00000001
 43
0.00000001
 40
0.0
 40
0.0
 40
0.0
 40
0.0
 40
0.4050070576660529
 40
0.8801687722557073
 40
1.0
 40
1.0
 40
1.0
 40
1.0
 10
176.7748881707992
 20
254.654271066096
 30
0.0
 10
176.7910326002037
 20
254.6578503597828
 30
0.0
 10
176.826117970542
 20
254.6656289465266
 30
0.0
 10
176.8729406501116
 20
254.6147277837635
 30
0.0
 10
176.8997385219164
 20
254.5703745780077
 30
0.0
 10
176.9051355974964
 20
254.5614418685216
 30
0.0
  0
ELLIPSE
  5
565
330
1F
100
AcDbEntity
  8
0
  6
Continuous
 62
     8
370
     0
100
AcDbEllipse
 10
177.1314709757
 20
239.7909624613
 30
0.0
 11
0.2392684777486238
 21
0.3181428463424822
 31
0.0
210
0.0
220
0.0
230
1.0
 40
0.2277624475
 41
2.062130681118379
 42
2.756854221087619
  0
ARC
  5
566
330
1F
100
AcDbEntity
  8
0
  6
Continuous
 62
     8
370
     0
100
AcDbCircle
 10
177.0065897749
 20
238.5786321494
 30
0.0
 40
0.1257404371947994
100
AcDbArc
 50
185.6965772206
 51
245.6241932065
  0
ELLIPSE
  5
567
330
1F
100
AcDbEntity
  8
0
  6
Continuous
 62
     8
370
     0
100
AcDbEllipse
 10
177.1314709757
 20
239.7909624613
 30
0.0
 11
0.3951324600047598
 21
0.04818339124813065
 31
0.0
210
0.0
220
0.0
230
1.0
 40
0.2276700627
 41
3.526262332394533
 42
4.220985872368049
  0
ARC
  5
568
330
1F
100
AcDbEntity
  8
0
  6
Continuous
 62
     8
370
     0
100
AcDbCircle
 10
176.8620222782
 20
239.8093812077
 30
0.0
 40
0.1340511629550197
100
AcDbArc
 50
175.6400684985
 51
226.2532997728
  0
ARC
  5
569
330
1F
100
AcDbEntity
  8
0
  6
Continuous
 62
     8
370
     0
100
AcDbCircle
 10
176.6321260421
 20
239.5026528895
 30
0.0
 40
0.2507555548543041
100
AcDbArc
 50
3.1724694573
 51
56.8275306884
  0
ARC
  5
56A
330
1F
100
AcDbEntity
  8
0
  6
Continuous
 62
     8
370
     0
100
AcDbCircle
 10
177.5307434767
 20
238.2450904507
 30
0.0
 40
0.1173959988796846
100
AcDbArc
 50
303.1854833448
 51
7.996428001
  0
ARC
  5
56B
330
1F
100
AcDbEntity
  8
0
  6
Continuous
 62
     8
370
     0
100
AcDbCircle
 10
177.4193167402
 20
238.2500840603
 30
0.0
 40
0.120512019206545
100
AcDbArc
 50
172.9282973773
 51
235.7592677322
  0
ARC
  5
56C
330
1F
100
AcDbEntity
  8
0
  6
Continuous
 62
     8
370
     0
100
AcDbCircle
 10
177.0742894674
 20
238.4492640653
 30
0.0
 40
0.1205120192547908
100
AcDbArc
 50
172.9282973913
 51
235.7592677182
  0
LINE
  5
56D
330
1F
100
AcDbEntity
  8
0
  6
Continuous
 62
     8
370
     0
100
AcDbLine
 10
191.3688230419
 20
270.0561882119
 30
0.0
 11
186.5003424472
 21
267.2456741881
 31
0.0
  0
LINE
  5
56E
330
1F
100
AcDbEntity
  8
0
  6
Continuous
 62
     8
370
     0
100
AcDbLine
 10
187.0312595478
 20
259.9996141775
 30
0.0
 11
187.0312595478
 21
260.6120195066
 31
0.0
  0
LINE
  5
56F
330
1F
100
AcDbEntity
  8
0
  6
Continuous
 62
     8
370
     0
100
AcDbLine
 10
186.6777054407
 20
259.9996141775
 30
0.0
 11
186.6777054407
 21
260.6120195066
 31
0.0
  0
LINE
  5
570
330
1F
100
AcDbEntity
  8
0
  6
Continuous
 62
     8
370
     0
100
AcDbLine
 10
188.0919195642
 20
260.6119201717
 30
0.0
 11
188.0919195642
 21
261.2243255007
 31
0.0
  0
LINE
  5
571
330
1F
100
AcDbEntity
  8
0
  6
Continuous
 62
     8
370
     0
100
AcDbLine
 10
196.9307544607
 20
265.7144709466
 30
0.0
 11
196.9307544607
 21
266.3268762756
 31
0.0
  0
LINE
  5
572
330
1F
100
AcDbEntity
  8
0
  6
Continuous
 62
     8
370
     0
100
AcDbLine
 10
196.5772006829
 20
265.7144711367
 30
0.0
 11
196.5772006829
 21
266.3268764657
 31
0.0
  0
LINE
  5
573
330
1F
100
AcDbEntity
  8
0
  6
Continuous
 62
     8
370
     0
100
AcDbLine
 10
197.9914144771
 20
266.3267769407
 30
0.0
 11
197.9914144771
 21
266.9391822698
 31
0.0
  0
LINE
  5
574
330
1F
100
AcDbEntity
  8
0
  6
Continuous
 62
     8
370
     0
100
AcDbLine
 10
186.6777054407
 20
236.7282010266
 30
0.0
 11
186.6777054407
 21
236.1157956975
 31
0.0
  0
LINE
  5
575
330
1F
100
AcDbEntity
  8
0
  6
Continuous
 62
     8
370
     0
100
AcDbLine
 10
187.0312595478
 20
236.7282010266
 30
0.0
 11
187.0312595478
 21
236.1157956975
 31
0.0
  0
LINE
  5
576
330
1F
100
AcDbEntity
  8
0
  6
Continuous
 62
     8
370
     0
100
AcDbLine
 10
188.0919195642
 20
237.3405070207
 30
0.0
 11
188.0919195642
 21
236.7281016917
 31
0.0
  0
LINE
  5
577
330
1F
100
AcDbEntity
  8
0
  6
Continuous
 62
     8
370
     0
100
AcDbLine
 10
196.5772006829
 20
242.4430579858
 30
0.0
 11
196.5772006829
 21
241.8306526567
 31
0.0
  0
LINE
  5
578
330
1F
100
AcDbEntity
  8
0
  6
Continuous
 62
     8
370
     0
100
AcDbLine
 10
196.9307544607
 20
242.4430577957
 30
0.0
 11
196.9307544607
 21
241.8306524666
 31
0.0
  0
LINE
  5
579
330
1F
100
AcDbEntity
  8
0
  6
Continuous
 62
     8
370
     0
100
AcDbLine
 10
197.9914144771
 20
243.0553637898
 30
0.0
 11
197.9914144771
 21
242.4429584608
 31
0.0
  0
MTEXT
  5
57B
330
1F
100
AcDbEntity
  8
0
  6
Continuous
 62
     7
370
     0
100
AcDbMText
 10
186.288577882
 20
279.155979526
 30
0.0
 40
3.5
 41
0.0
 71
     1
 72
     1
  1
1:2
  7
SLDTEXTSTYLE7
 73
     1
 44
1.0
  0
LINE
  5
57C
330
1F
100
AcDbEntity
  8
0
  6
Continuous
 62
     7
370
    30
100
AcDbLine
 10
67.1740836142
 20
271.779686614
 30
0.0
 11
67.1740836142
 21
271.5996880374
 31
0.0
  0
LINE
  5
57D
330
1F
100
AcDbEntity
  8
0
  6
Continuous
 62
     7
370
    30
100
AcDbLine
 10
74.7040832093
 20
271.5996880374
 30
0.0
 11
74.7040832093
 21
271.779686614
 31
0.0
  0
LINE
  5
57E
330
1F
100
AcDbEntity
  8
0
  6
Continuous
 62
     7
370
    30
100
AcDbLine
 10
74.2934668115
 20
288.4532422117
 30
0.0
 11
64.0863599865
 21
278.2461330584
 31
0.0
  0
ARC
  5
57F
330
1F
100
AcDbEntity
  8
0
  6
Continuous
 62
     7
370
    30
100
AcDbCircle
 10
74.6470200932
 20
288.0996873072
 30
0.0
 40
0.5000000000000372
100
AcDbArc
 50
90.0
 51
134.4017165622
  0
ARC
  5
580
330
1F
100
AcDbEntity
  8
0
  6
Continuous
 62
     7
370
    30
100
AcDbCircle
 10
64.4399133121
 20
277.892580526
 30
0.0
 40
0.5000000000000183
100
AcDbArc
 50
136.8364644335
 51
180.0
  0
LINE
  5
581
330
1F
100
AcDbEntity
  8
0
  6
Continuous
 62
     7
370
    30
100
AcDbLine
 10
63.4390835794
 20
235.8496872998
 30
0.0
 11
63.7390835354
 21
235.8496872998
 31
0.0
  0
LINE
  5
582
330
1F
100
AcDbEntity
  8
0
  6
Continuous
 62
     7
370
    30
100
AcDbLine
 10
63.7390835354
 20
264.3496873147
 30
0.0
 11
63.4390835794
 21
264.3496873147
 31
0.0
  0
LINE
  5
583
330
1F
100
AcDbEntity
  8
0
  6
Continuous
 62
     7
370
    30
100
AcDbLine
 10
70.9390831789
 20
271.779686614
 30
0.0
 11
74.7040832093
 21
271.779686614
 31
0.0
  0
LINE
  5
584
330
1F
100
AcDbEntity
  8
0
  6
Continuous
 62
     7
370
    30
100
AcDbLine
 10
67.1740836142
 20
271.779686614
 30
0.0
 11
70.9390831789
 21
271.779686614
 31
0.0
  0
LINE
  5
585
330
1F
100
AcDbEntity
  8
0
  6
Continuous
 62
     7
370
    30
100
AcDbLine
 10
58.9390835403
 20
271.5996880374
 30
0.0
 11
58.9390835403
 21
268.5996875456
 31
0.0
  0
LINE
  5
586
330
1F
100
AcDbEntity
  8
0
  6
Continuous
 62
     7
370
    30
100
AcDbLine
 10
58.9390835403
 20
271.5996880374
 30
0.0
 11
82.9390832832
 21
271.5996880374
 31
0.0
  0
LINE
  5
587
330
1F
100
AcDbEntity
  8
0
  6
Continuous
 62
     7
370
    30
100
AcDbLine
 10
82.9390832832
 20
271.5996880374
 30
0.0
 11
82.9390832832
 21
268.5996875456
 31
0.0
  0
LINE
  5
588
330
1F
100
AcDbEntity
  8
0
  6
Continuous
 62
     7
370
    30
100
AcDbLine
 10
58.9390835403
 20
268.5996875456
 30
0.0
 11
82.9390832832
 21
268.5996875456
 31
0.0
  0
LINE
  5
589
330
1F
100
AcDbEntity
  8
0
  6
Continuous
 62
     7
370
    30
100
AcDbLine
 10
79.9407424083
 20
268.5996875456
 30
0.0
 11
79.9407424083
 21
266.5996872178
 31
0.0
  0
LINE
  5
58A
330
1F
100
AcDbEntity
  8
0
  6
Continuous
 62
     7
370
    30
100
AcDbLine
 10
78.4407430938
 20
268.5996875456
 30
0.0
 11
78.4407430938
 21
266.5996872178
 31
0.0
  0
LINE
  5
58B
330
1F
100
AcDbEntity
  8
0
  6
Continuous
 62
     7
370
    30
100
AcDbLine
 10
79.9407424083
 20
233.5996873966
 30
0.0
 11
79.9407424083
 21
231.5996870688
 31
0.0
  0
LINE
  5
58C
330
1F
100
AcDbEntity
  8
0
  6
Continuous
 62
     7
370
    30
100
AcDbLine
 10
79.9407424083
 20
231.5996870688
 30
0.0
 11
78.4407430938
 21
231.5996870688
 31
0.0
  0
LINE
  5
58D
330
1F
100
AcDbEntity
  8
0
  6
Continuous
 62
     7
370
    30
100
AcDbLine
 10
78.4407430938
 20
233.5996873966
 30
0.0
 11
78.4407430938
 21
231.5996870688
 31
0.0
  0
LINE
  5
58E
330
1F
100
AcDbEntity
  8
0
  6
Continuous
 62
     7
370
    30
100
AcDbLine
 10
79.9407424083
 20
266.5996872178
 30
0.0
 11
79.9407424083
 21
233.5996873966
 31
0.0
  0
LINE
  5
58F
330
1F
100
AcDbEntity
  8
0
  6
Continuous
 62
     7
370
    30
100
AcDbLine
 10
78.4407430938
 20
266.5996872178
 30
0.0
 11
78.4407430938
 21
233.5996873966
 31
0.0
  0
LINE
  5
590
330
1F
100
AcDbEntity
  8
0
  6
Continuous
 62
     7
370
    30
100
AcDbLine
 10
78.1407436034
 20
237.4123012937
 30
0.0
 11
78.1407436034
 21
238.7870740435
 31
0.0
  0
LINE
  5
591
330
1F
100
AcDbEntity
  8
0
  6
Continuous
 62
     7
370
    30
100
AcDbLine
 10
78.1407436034
 20
261.4123005709
 30
0.0
 11
78.1407436034
 21
262.7870733208
 31
0.0
  0
LINE
  5
592
330
1F
100
AcDbEntity
  8
0
  6
Continuous
 62
     7
370
    30
100
AcDbLine
 10
77.9399132034
 20
261.6657125122
 30
0.0
 11
77.9399132034
 21
261.5532189897
 31
0.0
  0
LINE
  5
593
330
1F
100
AcDbEntity
  8
0
  6
Continuous
 62
     7
370
    30
100
AcDbLine
 10
77.9368249377
 20
266.6551754168
 30
0.0
 11
77.9399132034
 21
266.5996872178
 31
0.0
  0
LINE
  5
594
330
1F
100
AcDbEntity
  8
0
  6
Continuous
 62
     7
370
    30
100
AcDbLine
 10
77.9399132034
 20
266.5996872178
 30
0.0
 11
77.9399132034
 21
265.5414132691
 31
0.0
  0
LINE
  5
595
330
1F
100
AcDbEntity
  8
0
  6
Continuous
 62
     7
370
    30
100
AcDbLine
 10
77.9399132034
 20
262.6579612783
 30
0.0
 11
77.9399132034
 21
261.6657125122
 31
0.0
  0
LINE
  5
596
330
1F
100
AcDbEntity
  8
0
  6
Continuous
 62
     7
370
    30
100
AcDbLine
 10
77.9399132034
 20
266.657961934
 30
0.0
 11
77.9399132034
 21
266.5996872178
 31
0.0
  0
ARC
  5
597
330
1F
100
AcDbEntity
  8
0
  6
Continuous
 62
     7
370
    30
100
AcDbCircle
 10
76.9157969975
 20
288.0996873072
 30
0.0
 40
0.5
100
AcDbArc
 50
2.0
 51
90.0
  0
LWPOLYLINE
  5
598
330
1F
100
AcDbEntity
  8
0
  6
Continuous
 62
     7
370
    30
100
AcDbPolyline
 90
        9
 70
   128
 43
0.0
 10
77.9399132034
 20
273.0996873519
 10
77.9303056797
 20
273.0995197139
 10
77.9018537751
 20
273.0990223876
 10
77.8556489995
 20
273.0982158623
 10
77.7934664538
 20
273.0971318028
 10
77.7176977744
 20
273.0958093247
 10
77.6312542757
 20
273.0943005822
 10
77.5374589166
 20
273.0926633171
 10
77.4399131214
 20
273.0909589968
  0
LINE
  5
599
330
1F
100
AcDbEntity
  8
0
  6
Continuous
 62
     7
370
    30
100
AcDbLine
 10
77.4154919809
 20
288.1171353451
 30
0.0
 11
77.9399132034
 21
273.0996873519
 31
0.0
  0
LINE
  5
59A
330
1F
100
AcDbEntity
  8
0
  6
Continuous
 62
     7
370
    30
100
AcDbLine
 10
77.9399132034
 20
273.0996873519
 30
0.0
 11
77.9399132034
 21
271.5996880374
 31
0.0
  0
LINE
  5
59B
330
1F
100
AcDbEntity
  8
0
  6
Continuous
 62
     7
370
    30
100
AcDbLine
 10
75.9399128756
 20
288.5996870986
 30
0.0
 11
76.9157973727
 21
288.5996870986
 31
0.0
  0
ARC
  5
59C
330
1F
100
AcDbEntity
  8
0
  6
Continuous
 62
     7
370
    30
100
AcDbCircle
 10
75.9399133121
 20
288.0996873072
 30
0.0
 40
0.5
100
AcDbArc
 50
90.0
 51
180.0
  0
LINE
  5
59D
330
1F
100
AcDbEntity
  8
0
  6
Continuous
 62
     7
370
    30
100
AcDbLine
 10
75.4399137249
 20
271.5996880374
 30
0.0
 11
75.4399137249
 21
288.0996860853
 31
0.0
  0
LINE
  5
59E
330
1F
100
AcDbEntity
  8
0
  6
Continuous
 62
     7
370
    30
100
AcDbLine
 10
63.9399132369
 20
263.775594934
 30
0.0
 11
63.9399132369
 21
266.9601127795
 31
0.0
  0
LINE
  5
59F
330
1F
100
AcDbEntity
  8
0
  6
Continuous
 62
     7
370
    30
100
AcDbLine
 10
63.9399132369
 20
268.544024258
 30
0.0
 11
63.9399132369
 21
268.5996875456
 31
0.0
  0
LINE
  5
5A0
330
1F
100
AcDbEntity
  8
0
  6
Continuous
 62
     7
370
    30
100
AcDbLine
 10
63.9399132369
 20
271.5996880374
 30
0.0
 11
63.9399132369
 21
277.2910971484
 31
0.0
  0
LINE
  5
5A1
330
1F
100
AcDbEntity
  8
0
  6
Continuous
 62
     7
370
    30
100
AcDbLine
 10
75.2997403642
 20
288.5996870986
 30
0.0
 11
75.9399128756
 21
288.5996870986
 31
0.0
  0
LINE
  5
5A2
330
1F
100
AcDbEntity
  8
0
  6
Continuous
 62
     7
370
    30
100
AcDbLine
 10
74.6470201438
 20
288.5996870986
 30
0.0
 11
75.2997403642
 21
288.5996870986
 31
0.0
  0
LINE
  5
5A3
330
1F
100
AcDbEntity
  8
0
  6
Continuous
 62
     7
370
    30
100
AcDbLine
 10
63.9399132369
 20
277.2910971484
 30
0.0
 11
63.9399132369
 21
277.8925806573
 31
0.0
  0
ARC
  5
5A4
330
1F
100
AcDbEntity
  8
0
  6
Continuous
 62
     7
370
    30
100
AcDbCircle
 10
63.0907430578
 20
267.0996873072
 30
0.0
 40
3.500000000000033
100
AcDbArc
 50
292.6586495837
 51
14.4775121859
  0
ARC
  5
5A5
330
1F
100
AcDbEntity
  8
0
  6
Continuous
 62
     7
370
    30
100
AcDbCircle
 10
66.963726404
 20
268.0996873072
 30
0.0
 40
0.5000000000000162
100
AcDbArc
 50
90.0
 51
194.4775121859
  0
ARC
  5
5A6
330
1F
100
AcDbEntity
  8
0
  6
Continuous
 62
     7
370
    30
100
AcDbCircle
 10
77.9407430578
 20
268.0996873072
 30
0.0
 40
0.5000000000000568
100
AcDbArc
 50
0.0
 51
90.0
  0
ARC
  5
5A7
330
1F
100
AcDbEntity
  8
0
  6
Continuous
 62
     7
370
    30
100
AcDbCircle
 10
77.9407430578
 20
267.245331231
 30
0.0
 40
0.5
100
AcDbArc
 50
293.5781784782
 51
0.0
  0
ARC
  5
5A8
330
1F
100
AcDbEntity
  8
0
  6
Continuous
 62
     7
370
    30
100
AcDbCircle
 10
78.4407430578
 20
266.0996873072
 30
0.0
 40
0.7500000000000404
100
AcDbArc
 50
113.5781784782
 51
270.0
  0
LINE
  5
5A9
330
1F
100
AcDbEntity
  8
0
  6
Continuous
 62
     7
370
    30
100
AcDbLine
 10
79.9407424083
 20
266.0996880672
 30
0.0
 11
80.9407425722
 21
266.0996880672
 31
0.0
  0
ARC
  5
5AA
330
1F
100
AcDbEntity
  8
0
  6
Continuous
 62
     7
370
    30
100
AcDbCircle
 10
80.9407430578
 20
265.5996873072
 30
0.0
 40
0.5
100
AcDbArc
 50
0.0
 51
90.0
  0
LINE
  5
5AB
330
1F
100
AcDbEntity
  8
0
  6
Continuous
 62
     7
370
    30
100
AcDbLine
 10
81.4407435855
 20
265.5996870539
 30
0.0
 11
81.4407435855
 21
262.5996874935
 31
0.0
  0
ARC
  5
5AC
330
1F
100
AcDbEntity
  8
0
  6
Continuous
 62
     7
370
    30
100
AcDbCircle
 10
80.9407430578
 20
262.5996873072
 30
0.0
 40
0.5
100
AcDbArc
 50
270.0
 51
0.0
  0
LINE
  5
5AD
330
1F
100
AcDbEntity
  8
0
  6
Continuous
 62
     7
370
    30
100
AcDbLine
 10
80.9407425722
 20
262.0996874115
 30
0.0
 11
79.9407424083
 21
262.0996874115
 31
0.0
  0
ARC
  5
5AE
330
1F
100
AcDbEntity
  8
0
  6
Continuous
 62
     7
370
    30
100
AcDbCircle
 10
78.4407430578
 20
262.0996873072
 30
0.0
 40
0.7499999999999432
100
AcDbArc
 50
90.0
 51
246.4218215218
  0
ARC
  5
5AF
330
1F
100
AcDbEntity
  8
0
  6
Continuous
 62
     7
370
    30
100
AcDbCircle
 10
77.9407430578
 20
260.9540433835
 30
0.0
 40
0.5
100
AcDbArc
 50
0.0
 51
66.4218215218
  0
ARC
  5
5B0
330
1F
100
AcDbEntity
  8
0
  6
Continuous
 62
     7
370
    30
100
AcDbCircle
 10
77.9407430578
 20
239.245331231
 30
0.0
 40
0.5
100
AcDbArc
 50
293.5781784782
 51
0.0
  0
ARC
  5
5B1
330
1F
100
AcDbEntity
  8
0
  6
Continuous
 62
     7
370
    30
100
AcDbCircle
 10
78.4407430578
 20
238.0996873072
 30
0.0
 40
0.75
100
AcDbArc
 50
113.5781784782
 51
270.0
  0
LINE
  5
5B2
330
1F
100
AcDbEntity
  8
0
  6
Continuous
 62
     7
370
    30
100
AcDbLine
 10
79.9407424083
 20
238.0996872029
 30
0.0
 11
80.9407425722
 21
238.0996872029
 31
0.0
  0
ARC
  5
5B3
330
1F
100
AcDbEntity
  8
0
  6
Continuous
 62
     7
370
    30
100
AcDbCircle
 10
80.9407430578
 20
237.5996873072
 30
0.0
 40
0.5
100
AcDbArc
 50
0.0
 51
90.0
  0
LINE
  5
5B4
330
1F
100
AcDbEntity
  8
0
  6
Continuous
 62
     7
370
    30
100
AcDbLine
 10
81.4407435855
 20
237.599687121
 30
0.0
 11
81.4407435855
 21
234.5996875605
 31
0.0
  0
ARC
  5
5B5
330
1F
100
AcDbEntity
  8
0
  6
Continuous
 62
     7
370
    30
100
AcDbCircle
 10
80.9407430578
 20
234.5996873072
 30
0.0
 40
0.5
100
AcDbArc
 50
270.0
 51
0.0
  0
LINE
  5
5B6
330
1F
100
AcDbEntity
  8
0
  6
Continuous
 62
     7
370
    30
100
AcDbLine
 10
80.9407425722
 20
234.0996865473
 30
0.0
 11
79.9407424083
 21
234.0996865473
 31
0.0
  0
ARC
  5
5B7
330
1F
100
AcDbEntity
  8
0
  6
Continuous
 62
     7
370
    30
100
AcDbCircle
 10
78.4407430578
 20
234.0996873072
 30
0.0
 40
0.7500000000000143
100
AcDbArc
 50
90.0
 51
246.4218215218
  0
ARC
  5
5B8
330
1F
100
AcDbEntity
  8
0
  6
Continuous
 62
     7
370
    30
100
AcDbCircle
 10
77.9407430578
 20
232.9540433835
 30
0.0
 40
0.5000000000000107
100
AcDbArc
 50
0.0
 51
66.4218215218
  0
ARC
  5
5B9
330
1F
100
AcDbEntity
  8
0
  6
Continuous
 62
     7
370
    30
100
AcDbCircle
 10
77.9407430578
 20
232.0996873072
 30
0.0
 40
0.5
100
AcDbArc
 50
270.0
 51
0.0
  0
LINE
  5
5BA
330
1F
100
AcDbEntity
  8
0
  6
Continuous
 62
     7
370
    30
100
AcDbLine
 10
77.9407439431
 20
231.5996870688
 30
0.0
 11
66.9637262499
 21
231.5996870688
 31
0.0
  0
ARC
  5
5BB
330
1F
100
AcDbEntity
  8
0
  6
Continuous
 62
     7
370
    30
100
AcDbCircle
 10
66.963726404
 20
232.0996873072
 30
0.0
 40
0.500000000000002
100
AcDbArc
 50
165.5224878141
 51
270.0
  0
ARC
  5
5BC
330
1F
100
AcDbEntity
  8
0
  6
Continuous
 62
     7
370
    30
100
AcDbCircle
 10
63.0907430578
 20
233.0996873072
 30
0.0
 40
3.499999999999994
100
AcDbArc
 50
345.5224878141
 51
67.3413504163
  0
LINE
  5
5BD
330
1F
100
AcDbEntity
  8
0
  6
Continuous
 62
     7
370
    30
100
AcDbLine
 10
61.9390835663
 20
236.4537896878
 30
0.0
 11
63.4390835794
 21
236.4537896878
 31
0.0
  0
SPLINE
  5
5BE
330
1F
100
AcDbEntity
  8
0
  6
Continuous
 62
     7
370
    30
100
AcDbSpline
210
0.0
220
0.0
230
1.0
 70
     8
 71
     3
 72
    14
 73
    10
 74
     0
 42
0.00000001
 43
0.00000001
 40
0.0
 40
0.0
 40
0.0
 40
0.0
 40
0.25
 40
0.25
 40
0.5
 40
0.5
 40
0.75
 40
0.75
 40
1.0
 40
1.0
 40
1.0
 40
1.0
 10
64.43908356634253
 20
236.329544559948
 30
0.0
 10
64.06227645999024
 20
236.3994839803258
 30
0.0
 10
63.70011184529582
 20
236.454363193092
 30
0.0
 10
63.06263031207033
 20
236.5345627487117
 30
0.0
 10
62.78776599967767
 20
236.5597895006802
 30
0.0
 10
62.35299397910535
 20
236.5804969529343
 30
0.0
 10
62.19280256100028
 20
236.57597765322
 30
0.0
 10
61.98602128191391
 20
236.5371930021084
 30
0.0
 10
61.93908354709272
 20
236.5028852293479
 30
0.0
 10
61.93908354709272
 20
236.4537892734726
 30
0.0
  0
SPLINE
  5
5BF
330
1F
100
AcDbEntity
  8
0
  6
Continuous
 62
     7
370
    30
100
AcDbSpline
210
0.0
220
0.0
230
1.0
 70
     8
 71
     3
 72
    14
 73
    10
 74
     0
 42
0.00000001
 43
0.00000001
 40
0.0
 40
0.0
 40
0.0
 40
0.0
 40
0.25
 40
0.25
 40
0.5
 40
0.5
 40
0.75
 40
0.75
 40
1.0
 40
1.0
 40
1.0
 40
1.0
 10
61.93908354709272
 20
263.7455853409733
 30
0.0
 10
61.93908354709272
 20
263.6999963164198
 30
0.0
 10
62.0301181902553
 20
263.6685248228278
 30
0.0
 10
62.3389009426597
 20
263.6333648634251
 30
0.0
 10
62.55586923305111
 20
263.629751736638
 30
0.0
 10
63.05082727501004
 20
263.650459188892
 30
0.0
 10
63.32838254036681
 20
263.6747797679333
 30
0.0
 10
63.88901093723413
 20
263.7513546318443
 30
0.0
 10
64.17223932122813
 20
263.8036784665115
 30
0.0
 10
64.43908356634255
 20
263.8698300544979
 30
0.0
  0
LINE
  5
5C0
330
1F
100
AcDbEntity
  8
0
  6
Continuous
 62
     7
370
    30
100
AcDbLine
 10
61.9390835663
 20
236.4537896878
 30
0.0
 11
61.9390835663
 21
263.7455849266
 31
0.0
  0
LINE
  5
5C1
330
1F
100
AcDbEntity
  8
0
  6
Continuous
 62
     7
370
    30
100
AcDbLine
 10
63.4390835794
 20
263.7455849266
 30
0.0
 11
61.9390835663
 21
263.7455849266
 31
0.0
  0
LINE
  5
5C2
330
1F
100
AcDbEntity
  8
0
  6
Continuous
 62
     7
370
    30
100
AcDbLine
 10
78.2407434335
 20
268.4996877155
 30
0.0
 11
78.2407434335
 21
268.5996875456
 31
0.0
  0
LINE
  5
5C3
330
1F
100
AcDbEntity
  8
0
  6
Continuous
 62
     7
370
    30
100
AcDbLine
 10
78.2407434335
 20
231.6996868989
 30
0.0
 11
78.2407434335
 21
231.5996870688
 31
0.0
  0
LINE
  5
5C4
330
1F
100
AcDbEntity
  8
0
  6
Continuous
 62
     7
370
    30
100
AcDbLine
 10
77.9407439431
 20
231.5996870688
 30
0.0
 11
78.2407434335
 21
231.5996870688
 31
0.0
  0
LINE
  5
5C5
330
1F
100
AcDbEntity
  8
0
  6
Continuous
 62
     7
370
    30
100
AcDbLine
 10
66.5907432003
 20
267.0996882311
 30
0.0
 11
66.4796033552
 21
267.0996882311
 31
0.0
  0
LINE
  5
5C6
330
1F
100
AcDbEntity
  8
0
  6
Continuous
 62
     7
370
    30
100
AcDbLine
 10
66.4796033552
 20
231.5996870688
 30
0.0
 11
66.9637262499
 21
231.5996870688
 31
0.0
  0
LINE
  5
5C7
330
1F
100
AcDbEntity
  8
0
  6
Continuous
 62
     7
370
    30
100
AcDbLine
 10
66.4796033552
 20
233.0996863834
 30
0.0
 11
66.5907432003
 21
233.0996863834
 31
0.0
  0
LINE
  5
5C8
330
1F
100
AcDbEntity
  8
0
  6
Continuous
 62
     7
370
    30
100
AcDbLine
 10
64.4390835105
 20
233.0996863834
 30
0.0
 11
64.4390835105
 21
231.5996870688
 31
0.0
  0
LINE
  5
5C9
330
1F
100
AcDbEntity
  8
0
  6
Continuous
 62
     7
370
    30
100
AcDbLine
 10
64.4390835105
 20
231.5996870688
 30
0.0
 11
66.4796033552
 21
231.5996870688
 31
0.0
  0
LINE
  5
5CA
330
1F
100
AcDbEntity
  8
0
  6
Continuous
 62
     7
370
    30
100
AcDbLine
 10
64.4390835105
 20
233.0996863834
 30
0.0
 11
66.4796033552
 21
233.0996863834
 31
0.0
  0
LINE
  5
5CB
330
1F
100
AcDbEntity
  8
0
  6
Continuous
 62
     7
370
    30
100
AcDbLine
 10
64.4390835105
 20
267.0996882311
 30
0.0
 11
64.4390835105
 21
268.5996875456
 31
0.0
  0
LINE
  5
5CC
330
1F
100
AcDbEntity
  8
0
  6
Continuous
 62
     7
370
    30
100
AcDbLine
 10
66.4796033552
 20
267.0996882311
 30
0.0
 11
64.4390835105
 21
267.0996882311
 31
0.0
  0
LINE
  5
5CD
330
1F
100
AcDbEntity
  8
0
  6
Continuous
 62
     7
370
    30
100
AcDbLine
 10
63.4390835794
 20
236.4537896878
 30
0.0
 11
63.4390835794
 21
234.0996865473
 31
0.0
  0
LINE
  5
5CE
330
1F
100
AcDbEntity
  8
0
  6
Continuous
 62
     7
370
    30
100
AcDbLine
 10
63.4390835794
 20
234.0996865473
 30
0.0
 11
61.9390835663
 21
234.0996865473
 31
0.0
  0
LINE
  5
5CF
330
1F
100
AcDbEntity
  8
0
  6
Continuous
 62
     7
370
    30
100
AcDbLine
 10
61.9390835663
 20
236.4537896878
 30
0.0
 11
61.9390835663
 21
234.0996865473
 31
0.0
  0
LINE
  5
5D0
330
1F
100
AcDbEntity
  8
0
  6
Continuous
 62
     7
370
    30
100
AcDbLine
 10
61.9390835663
 20
266.0996880672
 30
0.0
 11
61.9390835663
 21
263.7455849266
 31
0.0
  0
LINE
  5
5D1
330
1F
100
AcDbEntity
  8
0
  6
Continuous
 62
     7
370
    30
100
AcDbLine
 10
63.4390835794
 20
266.0996880672
 30
0.0
 11
61.9390835663
 21
266.0996880672
 31
0.0
  0
LINE
  5
5D2
330
1F
100
AcDbEntity
  8
0
  6
Continuous
 62
     7
370
    30
100
AcDbLine
 10
63.4390835794
 20
266.0996880672
 30
0.0
 11
63.4390835794
 21
263.7455849266
 31
0.0
  0
SPLINE
  5
5D3
330
1F
100
AcDbEntity
  8
0
  6
Continuous
 62
     7
370
    30
100
AcDbSpline
210
0.0
220
0.0
230
1.0
 70
     8
 71
     3
 72
    25
 73
    21
 74
     0
 42
0.00000001
 43
0.00000001
 40
0.0
 40
0.0
 40
0.0
 40
0.0
 40
0.0670700785966525
 40
0.1322552881632017
 40
0.1956281632193258
 40
0.2572676384688065
 40
0.3172594930614525
 40
0.3756967640243636
 40
0.4326801053221625
 40
0.4883180642508924
 40
0.5427272428129034
 40
0.5960323092281016
 40
0.6483658248519554
 40
0.6998678555603233
 40
0.7506853449708251
 40
0.8009712399986029
 40
0.8508833766237114
 40
0.9005831537555925
 40
0.9502340431188039
 40
1.0
 40
1.0
 40
1.0
 40
1.0
 10
64.43908356634253
 20
267.0996873184228
 30
0.0
 10
64.40597514558974
 20
267.09874706032
 30
0.0
 10
64.34068874934704
 20
267.0968929681683
 30
0.0
 10
64.24336697003329
 20
267.0818578010056
 30
0.0
 10
64.14942170333467
 20
267.0584497231263
 30
0.0
 10
64.05950952171553
 20
267.0264541185478
 30
0.0
 10
63.9743383214877
 20
266.9867666708715
 30
0.0
 10
63.89447773847283
 20
266.94004987747
 30
0.0
 10
63.82040894309825
 20
266.8870622998845
 30
0.0
 10
63.75251460230401
 20
266.8285589900842
 30
0.0
 10
63.69108564170822
 20
266.7653034519045
 30
0.0
 10
63.63632498005624
 20
266.6980522008705
 30
0.0
 10
63.58835261690702
 20
266.6275475858783
 30
0.0
 10
63.5472125267699
 20
266.5545102754704
 30
0.0
 10
63.51287450167338
 20
266.4796313712534
 30
0.0
 10
63.48525650671436
 20
266.4035722589549
 30
0.0
 10
63.46417282883585
 20
266.3269401066193
 30
0.0
 10
63.44955694138957
 20
266.2503576997707
 30
0.0
 10
63.44066577558889
 20
266.1741874927859
 30
0.0
 10
63.43961136875692
 20
266.1245398568781
 30
0.0
 10
63.43908355514264
 20
266.099687307223
 30
0.0
  0
SPLINE
  5
5D4
330
1F
100
AcDbEntity
  8
0
  6
Continuous
 62
     7
370
    30
100
AcDbSpline
210
0.0
220
0.0
230
1.0
 70
     8
 71
     3
 72
    14
 73
    10
 74
     0
 42
0.00000001
 43
0.00000001
 40
0.0
 40
0.0
 40
0.0
 40
0.0
 40
0.25
 40
0.25
 40
0.5
 40
0.5
 40
0.75
 40
0.75
 40
1.0
 40
1.0
 40
1.0
 40
1.0
 10
64.43908356634255
 20
268.5996873184228
 30
0.0
 10
64.06227646127068
 20
268.5996873184228
 30
0.0
 10
63.70011184778929
 20
268.5137434887802
 30
0.0
 10
63.06263031665878
 20
268.216081150526
 30
0.0
 10
62.78776600514643
 20
268.0050068160425
 30
0.0
 10
62.35299398593515
 20
267.5157813652285
 30
0.0
 10
62.19280256831249
 20
267.2380469148123
 30
0.0
 10
61.98602128983534
 20
266.6690082939073
 30
0.0
 10
61.93908355514264
 20
266.3776427394133
 30
0.0
 10
61.93908355514264
 20
266.099687307223
 30
0.0
  0
SPLINE
  5
5D5
330
1F
100
AcDbEntity
  8
0
  6
Continuous
 62
     7
370
    30
100
AcDbSpline
210
0.0
220
0.0
230
1.0
 70
     8
 71
     3
 72
    25
 73
    21
 74
     0
 42
0.00000001
 43
0.00000001
 40
0.0
 40
0.0
 40
0.0
 40
0.0
 40
0.0653613889870856
 40
0.1290259353002247
 40
0.1910711177617252
 40
0.2515806395338079
 40
0.3106447365079924
 40
0.3683604281079128
 40
0.4248316875700675
 40
0.4801695065788161
 40
0.5344918283957427
 40
0.5879233250149465
 40
0.6405949980102098
 40
0.6926435900060531
 40
0.7442108040763116
 40
0.7954423412509782
 40
0.8464867804641197
 40
0.8974943389449521
 40
0.9486155622454467
 40
1.0
 40
1.0
 40
1.0
 40
1.0
 10
63.43908355514264
 20
234.0996873072229
 30
0.0
 10
63.4400824257972
 20
234.0656158025168
 30
0.0
 10
63.44205423549165
 20
233.998357321173
 30
0.0
 10
63.45791563673449
 20
233.8986666078074
 30
0.0
 10
63.48246890731575
 20
233.8027857504482
 30
0.0
 10
63.51586125766395
 20
233.7114376463576
 30
0.0
 10
63.5570610844535
 20
233.6253272579681
 30
0.0
 10
63.60529607121963
 20
233.5450124133945
 30
0.0
 10
63.65970167205547
 20
233.47094117908
 30
0.0
 10
63.71942961296683
 20
233.4034482150603
 30
0.0
 10
63.78363564592907
 20
233.3427632956454
 30
0.0
 10
63.85149658466195
 20
233.2890180207246
 30
0.0
 10
63.92221799258611
 20
233.2422535817404
 30
0.0
 10
63.9950418594598
 20
233.2024301428723
 30
0.0
 10
64.06925462224406
 20
233.1694316182458
 30
0.0
 10
64.14418558573973
 20
233.143088674483
 30
0.0
 10
64.21923518830584
 20
233.1231346788968
 30
0.0
 10
64.29378658298293
 20
233.1094103087175
 30
0.0
 10
64.36754694545778
 20
233.1011401326927
 30
0.0
 10
64.41519724050704
 20
233.1001724032261
 30
0.0
 10
64.43908356634253
 20
233.099687296023
 30
0.0
  0
SPLINE
  5
5D6
330
1F
100
AcDbEntity
  8
0
  6
Continuous
 62
     7
370
    30
100
AcDbSpline
210
0.0
220
0.0
230
1.0
 70
     8
 71
     3
 72
    14
 73
    10
 74
     0
 42
0.00000001
 43
0.00000001
 40
0.0
 40
0.0
 40
0.0
 40
0.0
 40
0.25
 40
0.25
 40
0.5
 40
0.5
 40
0.75
 40
0.75
 40
1.0
 40
1.0
 40
1.0
 40
1.0
 10
61.93908355514264
 20
234.099687307223
 30
0.0
 10
61.93908355514264
 20
233.7116724095984
 30
0.0
 10
62.03011819800036
 20
233.341691669484
 30
0.0
 10
62.33890094938504
 20
232.6972235793024
 30
0.0
 10
62.55586923906439
 20
232.4232041083399
 30
0.0
 10
63.05082727941667
 20
231.9949696063391
 30
0.0
 10
63.32838254388022
 20
231.8403370870624
 30
0.0
 10
63.8890109389616
 20
231.6429129416686
 30
0.0
 10
64.172239322062
 20
231.599687296023
 30
0.0
 10
64.43908356634253
 20
231.599687296023
 30
0.0
  0
LINE
  5
5D7
330
1F
100
AcDbEntity
  8
0
  6
Continuous
 62
     7
370
    30
100
AcDbLine
 10
61.9390835663
 20
266.1496870509
 30
0.0
 11
61.9390835663
 21
266.0996880672
 31
0.0
  0
LINE
  5
5D8
330
1F
100
AcDbEntity
  8
0
  6
Continuous
 62
     7
370
    30
100
AcDbLine
 10
61.9390835663
 20
268.5996875456
 30
0.0
 11
61.9390835663
 21
268.1496873787
 31
0.0
  0
LINE
  5
5D9
330
1F
100
AcDbEntity
  8
0
  6
Continuous
 62
     7
370
    30
100
AcDbLine
 10
63.4390835794
 20
268.5996875456
 30
0.0
 11
63.4390835794
 21
268.3909744314
 31
0.0
  0
LINE
  5
5DA
330
1F
100
AcDbEntity
  8
0
  6
Continuous
 62
     7
370
    30
100
AcDbLine
 10
61.9390835663
 20
268.1496873787
 30
0.0
 11
61.9390835663
 21
266.1496870509
 31
0.0
  0
LINE
  5
5DB
330
1F
100
AcDbEntity
  8
0
  6
Continuous
 62
     7
370
    30
100
AcDbLine
 10
63.7390835354
 20
235.8496872998
 30
0.0
 11
63.7390835354
 21
236.4375958509
 31
0.0
  0
LINE
  5
5DC
330
1F
100
AcDbEntity
  8
0
  6
Continuous
 62
     7
370
    30
100
AcDbLine
 10
63.7390835354
 20
263.7377916193
 30
0.0
 11
63.7390835354
 21
264.3496873147
 31
0.0
  0
LINE
  5
5DD
330
1F
100
AcDbEntity
  8
0
  6
Continuous
 62
     8
370
     0
100
AcDbLine
 10
79.9407424083
 20
266.5996872178
 30
0.0
 11
78.4407430938
 21
266.5996872178
 31
0.0
  0
LINE
  5
5DE
330
1F
100
AcDbEntity
  8
0
  6
Continuous
 62
     8
370
     0
100
AcDbLine
 10
79.9407424083
 20
233.5996873966
 30
0.0
 11
78.4407430938
 21
233.5996873966
 31
0.0
  0
LINE
  5
5DF
330
1F
100
AcDbEntity
  8
0
  6
Continuous
 62
     8
370
     0
100
AcDbLine
 10
78.2407434335
 20
237.3768458432
 30
0.0
 11
78.2407434335
 21
238.8453310645
 31
0.0
  0
LINE
  5
5E0
330
1F
100
AcDbEntity
  8
0
  6
Continuous
 62
     8
370
     0
100
AcDbLine
 10
78.2407434335
 20
261.3540435499
 30
0.0
 11
78.2407434335
 21
262.8225287712
 31
0.0
  0
LINE
  5
5E1
330
1F
100
AcDbEntity
  8
0
  6
Continuous
 62
     8
370
     0
100
AcDbLine
 10
77.9399132034
 20
261.6657125122
 30
0.0
 11
77.8290522894
 21
261.6657125122
 31
0.0
  0
LINE
  5
5E2
330
1F
100
AcDbEntity
  8
0
  6
Continuous
 62
     8
370
     0
100
AcDbLine
 10
77.9399132034
 20
266.5996872178
 30
0.0
 11
77.8817260316
 21
266.5996872178
 31
0.0
  0
LINE
  5
5E3
330
1F
100
AcDbEntity
  8
0
  6
Continuous
 62
     8
370
     0
100
AcDbLine
 10
76.9157973727
 20
288.0996860853
 30
0.0
 11
76.9157973727
 21
288.5996870986
 31
0.0
  0
LWPOLYLINE
  5
5E4
330
1F
100
AcDbEntity
  8
0
  6
Continuous
 62
     8
370
     0
100
AcDbPolyline
 90
        9
 70
   128
 43
0.0
 10
77.4154919809
 20
288.1171353451
 10
77.4058909765
 20
288.116800069
 10
77.3774549043
 20
288.1158091417
 10
77.3312789997
 20
288.114196091
 10
77.2691346383
 20
288.1120279721
 10
77.193412525
 20
288.109383016
 10
77.1070221117
 20
288.1063655308
 10
77.0132826319
 20
288.1030910007
 10
76.9157973727
 20
288.0996860853
  0
LINE
  5
5E5
330
1F
100
AcDbEntity
  8
0
  6
Continuous
 62
     8
370
     0
100
AcDbLine
 10
77.4399131214
 20
271.5996880374
 30
0.0
 11
77.4399131214
 21
273.0909589968
 31
0.0
  0
LINE
  5
5E6
330
1F
100
AcDbEntity
  8
0
  6
Continuous
 62
     8
370
     0
100
AcDbLine
 10
75.9399128756
 20
288.0996860853
 30
0.0
 11
75.9399128756
 21
271.5996880374
 31
0.0
  0
LINE
  5
5E7
330
1F
100
AcDbEntity
  8
0
  6
Continuous
 62
     8
370
     0
100
AcDbLine
 10
76.9157973727
 20
288.0996860853
 30
0.0
 11
75.9399128756
 21
288.0996860853
 31
0.0
  0
LINE
  5
5E8
330
1F
100
AcDbEntity
  8
0
  6
Continuous
 62
     8
370
     0
100
AcDbLine
 10
77.4399131214
 20
273.0909589968
 30
0.0
 11
76.9157973727
 21
288.0996860853
 31
0.0
  0
LINE
  5
5E9
330
1F
100
AcDbEntity
  8
0
  6
Continuous
 62
     8
370
     0
100
AcDbLine
 10
75.9399128756
 20
288.0996860853
 30
0.0
 11
75.9399128756
 21
288.5996870986
 31
0.0
  0
LINE
  5
5EA
330
1F
100
AcDbEntity
  8
0
  6
Continuous
 62
     8
370
     0
100
AcDbLine
 10
75.9399128756
 20
288.0996860853
 30
0.0
 11
75.4399137249
 21
288.0996860853
 31
0.0
  0
LWPOLYLINE
  5
5EB
330
1F
100
AcDbEntity
  8
0
  6
Continuous
 62
     8
370
     0
100
AcDbPolyline
 90
        4
 70
   128
 43
0.0
 10
74.939913643
 20
287.7398602954
 10
74.9701946652
 20
287.8307052246
 10
75.0002540326
 20
287.9208833269
 10
75.0298700905
 20
288.0097315005
  0
ARC
  5
5EC
330
1F
100
AcDbEntity
  8
0
  6
Continuous
 62
     8
370
     0
100
AcDbCircle
 10
75.1145305937
 20
288.603356655
 30
0.0
 40
0.5996317410836505
100
AcDbArc
 50
261.8834327402
 51
302.863418631
  0
LINE
  5
5ED
330
1F
100
AcDbEntity
  8
0
  6
Continuous
 62
     8
370
     0
100
AcDbLine
 10
74.939913643
 20
287.7398602954
 30
0.0
 11
75.4399137249
 21
287.7398602954
 31
0.0
  0
LINE
  5
5EE
330
1F
100
AcDbEntity
  8
0
  6
Continuous
 62
     8
370
     0
100
AcDbLine
 10
74.939913643
 20
271.5996880374
 30
0.0
 11
74.939913643
 21
287.7398602954
 31
0.0
  0
LINE
  5
5EF
330
1F
100
AcDbEntity
  8
0
  6
Continuous
 62
     8
370
     0
100
AcDbLine
 10
75.0298700905
 20
288.0097315005
 30
0.0
 11
75.1445280066
 21
288.2549003056
 31
0.0
  0
ARC
  5
5F0
330
1F
100
AcDbEntity
  8
0
  6
Continuous
 62
     8
370
     0
100
AcDbCircle
 10
75.3045711344
 20
288.5977308023
 30
0.0
 40
0.3783471319535508
100
AcDbArc
 50
244.9754816694
 51
295.0245183306
  0
SPLINE
  5
5F1
330
1F
100
AcDbEntity
  8
0
  6
Continuous
 62
     8
370
     0
100
AcDbSpline
210
0.0
220
0.0
230
1.0
 70
     8
 71
     3
 72
    10
 73
     6
 74
     0
 42
0.00000001
 43
0.00000001
 40
0.0
 40
0.0
 40
0.0
 40
0.0
 40
0.0417791533994619
 40
0.4955451860796645
 40
1.0
 40
1.0
 40
1.0
 40
1.0
 10
75.14452800658816
 20
288.2549003056131
 30
0.0
 10
75.14586627360988
 20
288.2588854320628
 30
0.0
 10
75.16173954356238
 20
288.3061532694255
 30
0.0
 10
75.20808622802302
 20
288.3959887844379
 30
0.0
 10
75.26813023255505
 20
288.4535181774227
 30
0.0
 10
75.29974036422843
 20
288.4838044932924
 30
0.0
  0
ARC
  5
5F2
330
1F
100
AcDbEntity
  8
0
  6
Continuous
 62
     8
370
     0
100
AcDbCircle
 10
75.4597834921
 20
288.7328471473
 30
0.0
 40
0.2960338600329023
100
AcDbArc
 50
237.2738454484
 51
302.7261545516
  0
ELLIPSE
  5
5F3
330
1F
100
AcDbEntity
  8
0
  6
Continuous
 62
     8
370
     0
100
AcDbEllipse
 10
75.9399133121
 20
288.0996873072
 30
0.0
 11
1.000000000000014
 21
0.0
 31
0.0
210
0.0
220
0.0
230
1.0
 40
0.5
 41
1.570796326794897
 42
2.265519866766754
  0
LWPOLYLINE
  5
5F4
330
1F
100
AcDbEntity
  8
0
  6
Continuous
 62
     8
370
     0
100
AcDbPolyline
 90
        9
 70
   128
 43
0.0
 10
64.5873225903
 20
278.0924517951
 10
64.5983280292
 20
278.0814454249
 10
64.6212592865
 20
278.0585144005
 10
64.6553156575
 20
278.0244577966
 10
64.6993080763
 20
277.9804658434
 10
64.7517007919
 20
277.9280733607
 10
64.8106646868
 20
277.8691094658
 10
64.8741408395
 20
277.8056323818
 10
64.9399134008
 20
277.7398605189
  0
LINE
  5
5F5
330
1F
100
AcDbEntity
  8
0
  6
Continuous
 62
     8
370
     0
100
AcDbLine
 10
64.5873225903
 20
278.0924517951
 30
0.0
 11
74.9471500194
 21
288.4522773615
 31
0.0
  0
LWPOLYLINE
  5
5F6
330
1F
100
AcDbEntity
  8
0
  6
Continuous
 62
     8
370
     0
100
AcDbPolyline
 90
        9
 70
   128
 43
0.0
 10
74.9471500194
 20
288.4522773615
 10
74.9535267851
 20
288.4458996645
 10
74.9657755396
 20
288.43365091
 10
74.9836867353
 20
288.4157397142
 10
75.0069567612
 20
288.392471551
 10
75.035192599
 20
288.3642338506
 10
75.0679136863
 20
288.3315146259
 10
75.1045658862
 20
288.2948614946
 10
75.1445280066
 20
288.2549003056
  0
LINE
  5
5F7
330
1F
100
AcDbEntity
  8
0
  6
Continuous
 62
     8
370
     0
100
AcDbLine
 10
74.939913643
 20
287.7398602954
 30
0.0
 11
64.9399134008
 21
277.7398605189
 31
0.0
  0
LINE
  5
5F8
330
1F
100
AcDbEntity
  8
0
  6
Continuous
 62
     8
370
     0
100
AcDbLine
 10
64.9399134008
 20
277.7398605189
 30
0.0
 11
64.9399134008
 21
271.5996880374
 31
0.0
  0
LINE
  5
5F9
330
1F
100
AcDbEntity
  8
0
  6
Continuous
 62
     8
370
     0
100
AcDbLine
 10
64.9399134008
 20
267.0996882311
 30
0.0
 11
64.9399134008
 21
264.1280595503
 31
0.0
  0
SPLINE
  5
5FA
330
1F
100
AcDbEntity
  8
0
  6
Continuous
 62
     8
370
     0
100
AcDbSpline
210
0.0
220
0.0
230
1.0
 70
     8
 71
     3
 72
    12
 73
     8
 74
     0
 42
0.00000001
 43
0.00000001
 40
0.0
 40
0.0
 40
0.0
 40
0.0
 40
0.1364237554969069
 40
0.2724465265988026
 40
0.4494427026643627
 40
0.6927819628727826
 40
1.0
 40
1.0
 40
1.0
 40
1.0
 10
64.08724707124108
 20
277.6437647930227
 30
0.0
 10
64.0904498671745
 20
277.6426650596665
 30
0.0
 10
64.09684604520288
 20
277.6404688253523
 30
0.0
 10
64.15003237335601
 20
277.6806719088108
 30
0.0
 10
64.2445517752702
 20
277.7625982783606
 30
0.0
 10
64.3968753056938
 20
277.9042565410674
 30
0.0
 10
64.51911260735005
 20
278.0250483921043
 30
0.0
 10
64.58732259032601
 20
278.0924517950855
 30
0.0
  0
SPLINE
  5
5FB
330
1F
100
AcDbEntity
  8
0
  6
Continuous
 62
     8
370
     0
100
AcDbSpline
210
0.0
220
0.0
230
1.0
 70
     8
 71
     3
 72
    12
 73
     8
 74
     0
 42
0.00000001
 43
0.00000001
 40
0.0
 40
0.0
 40
0.0
 40
0.0
 40
0.2787255474156334
 40
0.5127444617462655
 40
0.6962918477028766
 40
0.8459549566578298
 40
1.0
 40
1.0
 40
1.0
 40
1.0
 10
64.93991340083355
 20
277.7398605189167
 30
0.0
 10
64.80190537834736
 20
277.6717073510225
 30
0.0
 10
64.54802535241336
 20
277.5463325523641
 30
0.0
 10
64.24516645366602
 20
277.4058431428994
 30
0.0
 10
64.06134995861711
 20
277.3264008519579
 30
0.0
 10
63.95858188778494
 20
277.2877390582953
 30
0.0
 10
63.94619569034525
 20
277.289967069703
 30
0.0
 10
63.93991323692077
 20
277.2910971484028
 30
0.0
  0
ARC
  5
5FC
330
1F
100
AcDbEntity
  8
0
  6
Continuous
 62
     8
370
     0
100
AcDbCircle
 10
64.436185552
 20
277.2908792665
 30
0.0
 40
0.4962723628775164
100
AcDbArc
 50
134.6777729481
 51
179.9748450361
  0
ARC
  5
5FD
330
1F
100
AcDbEntity
  8
0
  6
Continuous
 62
     8
370
     0
100
AcDbCircle
 10
75.2999792948
 20
288.103729118
 30
0.0
 40
0.4959580381403212
100
AcDbArc
 50
90.0276025604
 51
135.3497146791
  0
LINE
  5
5FE
330
1F
100
AcDbEntity
  8
0
  6
Continuous
 62
     8
370
     0
100
AcDbLine
 10
75.2997403642
 20
288.5996870986
 30
0.0
 11
75.2997403642
 21
288.4838044933
 31
0.0
  0
LWPOLYLINE
  5
5FF
330
1F
100
AcDbEntity
  8
0
  6
Continuous
 62
     8
370
     0
100
AcDbPolyline
 90
        4
 70
   128
 43
0.0
 10
64.0863599865
 20
278.2461330584
 10
64.0863953767
 20
278.2220285675
 10
64.0866794301
 20
278.0292224428
 10
64.0872470712
 20
277.643764793
  0
LWPOLYLINE
  5
600
330
1F
100
AcDbEntity
  8
0
  6
Continuous
 62
     8
370
     0
100
AcDbPolyline
 90
        4
 70
   128
 43
0.0
 10
74.9471500194
 20
288.4522773615
 10
74.5288613862
 20
288.4528957597
 10
74.3196257999
 20
288.4532012335
 10
74.2934668115
 20
288.4532422117
  0
LINE
  5
601
330
1F
100
AcDbEntity
  8
0
  6
Continuous
 62
     8
370
     0
100
AcDbLine
 10
64.4390835105
 20
236.3295447371
 30
0.0
 11
64.4390835105
 21
263.8698298774
 31
0.0
  0
LINE
  5
602
330
1F
100
AcDbEntity
  8
0
  6
Continuous
 62
     8
370
     0
100
AcDbLine
 10
66.4796033552
 20
267.0996882311
 30
0.0
 11
66.4796033552
 21
267.9746881417
 31
0.0
  0
LINE
  5
603
330
1F
100
AcDbEntity
  8
0
  6
Continuous
 62
     8
370
     0
100
AcDbLine
 10
66.4796033552
 20
268.2246867857
 30
0.0
 11
66.4796033552
 21
268.5996875456
 31
0.0
  0
LINE
  5
604
330
1F
100
AcDbEntity
  8
0
  6
Continuous
 62
     8
370
     0
100
AcDbLine
 10
66.4796033552
 20
233.0996863834
 30
0.0
 11
66.4796033552
 21
232.2246864728
 31
0.0
  0
LINE
  5
605
330
1F
100
AcDbEntity
  8
0
  6
Continuous
 62
     8
370
     0
100
AcDbLine
 10
66.4796033552
 20
231.9746878288
 30
0.0
 11
66.4796033552
 21
231.5996870688
 31
0.0
  0
LINE
  5
606
330
1F
100
AcDbEntity
  8
0
  6
Continuous
 62
     8
370
     0
100
AcDbLine
 10
63.0227612009
 20
268.1496873787
 30
0.0
 11
61.9390835663
 21
268.1496873787
 31
0.0
  0
DIMENSION
  5
607
330
1F
100
AcDbEntity
  8
0
  6
Continuous
 62
     7
370
     0
100
AcDbDimension
  2
*D27
 10
61.9390835663
 20
249.4128734925
 30
0.0
 11
70.5644180179
 21
249.4128734925
 31
0.0
 70
   160
 71
     2
 42
-1.0
  3
SLDDIMSTYLE1
100
AcDbAlignedDimension
 13
79.9407430578
 23
231.5996873072
 33
0.0
 14
61.9390835663
 24
236.4537892735
 34
0.0
 50
0.0
100
AcDbRotatedDimension
  0
ENDSEC
  0
SECTION
  2
OBJECTS
  0
DICTIONARY
  5
C
330
0
100
AcDbDictionary
281
     1
  3
ACAD_GROUP
350
D
  3
ACAD_LAYOUT
350
1A
  3
ACAD_MLINESTYLE
350
17
  3
ACAD_PLOTSETTINGS
350
19
  3
ACAD_PLOTSTYLENAME
350
E
  3
ACAD_SCALELIST
350
F9
  3
AcDbVariableDictionary
350
60F
  0
DICTIONARY
  5
D
102
{ACAD_REACTORS
330
C
102
}
330
C
100
AcDbDictionary
281
     1
  0
DICTIONARY
  5
1A
102
{ACAD_REACTORS
330
C
102
}
330
C
100
AcDbDictionary
281
     1
  3
Layout1
350
1E
  3
Layout2
350
26
  3
Model
350
22
  0
DICTIONARY
  5
17
102
{ACAD_REACTORS
330
C
102
}
330
C
100
AcDbDictionary
281
     1
  3
Standard
350
18
  0
DICTIONARY
  5
19
102
{ACAD_REACTORS
330
C
102
}
330
C
100
AcDbDictionary
281
     1
  0
ACDBDICTIONARYWDFLT
  5
E
102
{ACAD_REACTORS
330
C
102
}
330
C
100
AcDbDictionary
281
     1
  3
Normal
350
F
100
AcDbDictionaryWithDefault
340
F
  0
DICTIONARY
  5
F9
102
{ACAD_REACTORS
330
C
102
}
330
C
100
AcDbDictionary
281
     1
  3
A0
350
FA
  3
A1
350
FB
  3
A2
350
FC
  3
A3
350
FD
  3
A4
350
FE
  3
A5
350
FF
  3
A6
350
100
  3
A7
350
101
  3
A8
350
102
  3
A9
350
103
  3
B0
350
104
  3
B1
350
105
  3
B2
350
106
  3
B3
350
107
  3
B4
350
108
  3
B5
350
109
  3
B6
350
10A
  3
B7
350
10B
  3
B8
350
10C
  3
B9
350
10D
  3
C0
350
10E
  3
C1
350
10F
  3
C2
350
110
  3
C3
350
111
  3
C4
350
112
  3
C5
350
113
  3
C6
350
114
  3
C7
350
115
  3
C8
350
116
  3
C9
350
117
  3
D0
350
118
  3
D1
350
119
  3
D2
350
11A
  0
DICTIONARY
  5
60F
102
{ACAD_REACTORS
330
C
102
}
330
C
100
AcDbDictionary
281
     1
  3
CANNOSCALE
350
610
  0
LAYOUT
  5
1E
102
{ACAD_REACTORS
330
1A
102
}
330
1A
100
AcDbPlotSettings
  1

  2
none_device
  4

  6

 40
0.0
 41
0.0
 42
0.0
 43
0.0
 44
0.0
 45
0.0
 46
0.0
 47
0.0
 48
0.0
 49
0.0
140
0.0
141
0.0
142
1.0
143
1.0
 70
   688
 72
     0
 73
     0
 74
     5
  7

 75
    16
147
1.0
148
0.0
149
0.0
100
AcDbLayout
  1
Layout1
 70
     1
 71
     1
 10
0.0
 20
0.0
 11
420.0
 21
297.0
 12
0.0
 22
0.0
 32
0.0
 14
1.0000000000E+20
 24
1.0000000000E+20
 34
1.0000000000E+20
 15
-1.0000000000E+20
 25
-1.0000000000E+20
 35
-1.0000000000E+20
146
0.0
 13
0.0
 23
0.0
 33
0.0
 16
1.0
 26
0.0
 36
0.0
 17
0.0
 27
1.0
 37
0.0
 76
     0
330
1B
  0
LAYOUT
  5
26
102
{ACAD_REACTORS
330
1A
102
}
330
1A
100
AcDbPlotSettings
  1

  2
none_device
  4

  6

 40
0.0
 41
0.0
 42
0.0
 43
0.0
 44
0.0
 45
0.0
 46
0.0
 47
0.0
 48
0.0
 49
0.0
140
0.0
141
0.0
142
1.0
143
1.0
 70
   688
 72
     0
 73
     0
 74
     5
  7

 75
    16
147
1.0
148
0.0
149
0.0
100
AcDbLayout
  1
Layout2
 70
     1
 71
     2
 10
0.0
 20
0.0
 11
0.0
 21
0.0
 12
0.0
 22
0.0
 32
0.0
 14
0.0
 24
0.0
 34
0.0
 15
0.0
 25
0.0
 35
0.0
146
0.0
 13
0.0
 23
0.0
 33
0.0
 16
1.0
 26
0.0
 36
0.0
 17
0.0
 27
1.0
 37
0.0
 76
     0
330
23
  0
LAYOUT
  5
22
102
{ACAD_REACTORS
330
1A
102
}
330
1A
100
AcDbPlotSettings
  1

  2
none_device
  4

  6

 40
0.0
 41
0.0
 42
0.0
 43
0.0
 44
0.0
 45
0.0
 46
0.0
 47
0.0
 48
0.0
 49
0.0
140
0.0
141
0.0
142
1.0
143
1.0
 70
  1712
 72
     0
 73
     0
 74
     0
  7

 75
     0
147
1.0
148
0.0
149
0.0
100
AcDbLayout
  1
Model
 70
     1
 71
     0
 10
0.0
 20
0.0
 11
210.0
 21
297.0
 12
0.0
 22
0.0
 32
0.0
 14
0.0
 24
0.0
 34
0.0
 15
210.0
 25
297.0
 35
0.0
146
0.0
 13
0.0
 23
0.0
 33
0.0
 16
1.0
 26
0.0
 36
0.0
 17
0.0
 27
1.0
 37
0.0
 76
     0
330
1F
331
29
  0
MLINESTYLE
  5
18
102
{ACAD_REACTORS
330
17
102
}
330
17
100
AcDbMlineStyle
  2
Standard
 70
     0
  3

 62
   256
 51
90.0
 52
90.0
 71
     2
 49
0.5
 62
   256
  6
BYLAYER
 49
-0.5
 62
   256
  6
BYLAYER
  0
ACDBPLACEHOLDER
  5
F
102
{ACAD_REACTORS
330
E
102
}
330
E
  0
SCALE
  5
FA
102
{ACAD_REACTORS
330
F9
102
}
330
F9
100
AcDbScale
 70
     0
300
1:1
140
1.0
141
1.0
290
     1
  0
SCALE
  5
FB
102
{ACAD_REACTORS
330
F9
102
}
330
F9
100
AcDbScale
 70
     0
300
1:2
140
1.0
141
2.0
290
     0
  0
SCALE
  5
FC
102
{ACAD_REACTORS
330
F9
102
}
330
F9
100
AcDbScale
 70
     0
300
1:4
140
1.0
141
4.0
290
     0
  0
SCALE
  5
FD
102
{ACAD_REACTORS
330
F9
102
}
330
F9
100
AcDbScale
 70
     0
300
1:5
140
1.0
141
5.0
290
     0
  0
SCALE
  5
FE
102
{ACAD_REACTORS
330
F9
102
}
330
F9
100
AcDbScale
 70
     0
300
1:8
140
1.0
141
8.0
290
     0
  0
SCALE
  5
FF
102
{ACAD_REACTORS
330
F9
102
}
330
F9
100
AcDbScale
 70
     0
300
1:10
140
1.0
141
10.0
290
     0
  0
SCALE
  5
100
102
{ACAD_REACTORS
330
F9
102
}
330
F9
100
AcDbScale
 70
     0
300
1:16
140
1.0
141
16.0
290
     0
  0
SCALE
  5
101
102
{ACAD_REACTORS
330
F9
102
}
330
F9
100
AcDbScale
 70
     0
300
1:20
140
1.0
141
20.0
290
     0
  0
SCALE
  5
102
102
{ACAD_REACTORS
330
F9
102
}
330
F9
100
AcDbScale
 70
     0
300
1:30
140
1.0
141
30.0
290
     0
  0
SCALE
  5
103
102
{ACAD_REACTORS
330
F9
102
}
330
F9
100
AcDbScale
 70
     0
300
1:40
140
1.0
141
40.0
290
     0
  0
SCALE
  5
104
102
{ACAD_REACTORS
330
F9
102
}
330
F9
100
AcDbScale
 70
     0
300
1:50
140
1.0
141
50.0
290
     0
  0
SCALE
  5
105
102
{ACAD_REACTORS
330
F9
102
}
330
F9
100
AcDbScale
 70
     0
300
1:100
140
1.0
141
100.0
290
     0
  0
SCALE
  5
106
102
{ACAD_REACTORS
330
F9
102
}
330
F9
100
AcDbScale
 70
     0
300
2:1
140
2.0
141
1.0
290
     0
  0
SCALE
  5
107
102
{ACAD_REACTORS
330
F9
102
}
330
F9
100
AcDbScale
 70
     0
300
4:1
140
4.0
141
1.0
290
     0
  0
SCALE
  5
108
102
{ACAD_REACTORS
330
F9
102
}
330
F9
100
AcDbScale
 70
     0
300
8:1
140
8.0
141
1.0
290
     0
  0
SCALE
  5
109
102
{ACAD_REACTORS
330
F9
102
}
330
F9
100
AcDbScale
 70
     0
300
10:1
140
10.0
141
1.0
290
     0
  0
SCALE
  5
10A
102
{ACAD_REACTORS
330
F9
102
}
330
F9
100
AcDbScale
 70
     0
300
100:1
140
100.0
141
1.0
290
     0
  0
SCALE
  5
10B
102
{ACAD_REACTORS
330
F9
102
}
330
F9
100
AcDbScale
 70
     0
300
1/128" = 1'-0"
140
0.0078125
141
12.0
290
     0
  0
SCALE
  5
10C
102
{ACAD_REACTORS
330
F9
102
}
330
F9
100
AcDbScale
 70
     0
300
1/64" = 1'-0"
140
0.015625
141
12.0
290
     0
  0
SCALE
  5
10D
102
{ACAD_REACTORS
330
F9
102
}
330
F9
100
AcDbScale
 70
     0
300
1/32" = 1'-0"
140
0.03125
141
12.0
290
     0
  0
SCALE
  5
10E
102
{ACAD_REACTORS
330
F9
102
}
330
F9
100
AcDbScale
 70
     0
300
1/16" = 1'-0"
140
0.0625
141
12.0
290
     0
  0
SCALE
  5
10F
102
{ACAD_REACTORS
330
F9
102
}
330
F9
100
AcDbScale
 70
     0
300
3/32" = 1'-0"
140
0.09375
141
12.0
290
     0
  0
SCALE
  5
110
102
{ACAD_REACTORS
330
F9
102
}
330
F9
100
AcDbScale
 70
     0
300
1/8" = 1'-0"
140
0.125
141
12.0
290
     0
  0
SCALE
  5
111
102
{ACAD_REACTORS
330
F9
102
}
330
F9
100
AcDbScale
 70
     0
300
3/16" = 1'-0"
140
0.1875
141
12.0
290
     0
  0
SCALE
  5
112
102
{ACAD_REACTORS
330
F9
102
}
330
F9
100
AcDbScale
 70
     0
300
1/4" = 1'-0"
140
0.25
141
12.0
290
     0
  0
SCALE
  5
113
102
{ACAD_REACTORS
330
F9
102
}
330
F9
100
AcDbScale
 70
     0
300
3/8" = 1'-0"
140
0.375
141
12.0
290
     0
  0
SCALE
  5
114
102
{ACAD_REACTORS
330
F9
102
}
330
F9
100
AcDbScale
 70
     0
300
1/2" = 1'-0"
140
0.5
141
12.0
290
     0
  0
SCALE
  5
115
102
{ACAD_REACTORS
330
F9
102
}
330
F9
100
AcDbScale
 70
     0
300
3/4" = 1'-0"
140
0.75
141
12.0
290
     0
  0
SCALE
  5
116
102
{ACAD_REACTORS
330
F9
102
}
330
F9
100
AcDbScale
 70
     0
300
1" = 1'-0"
140
1.0
141
12.0
290
     0
  0
SCALE
  5
117
102
{ACAD_REACTORS
330
F9
102
}
330
F9
100
AcDbScale
 70
     0
300
1-1/2" = 1'-0"
140
1.5
141
12.0
290
     0
  0
SCALE
  5
118
102
{ACAD_REACTORS
330
F9
102
}
330
F9
100
AcDbScale
 70
     0
300
3" = 1'-0"
140
3.0
141
12.0
290
     0
  0
SCALE
  5
119
102
{ACAD_REACTORS
330
F9
102
}
330
F9
100
AcDbScale
 70
     0
300
6" = 1'-0"
140
6.0
141
12.0
290
     0
  0
SCALE
  5
11A
102
{ACAD_REACTORS
330
F9
102
}
330
F9
100
AcDbScale
 70
     0
300
1'-0" = 1'-0"
140
12.0
141
12.0
290
     0
  0
DICTIONARYVAR
  5
610
102
{ACAD_REACTORS
330
60F
102
}
330
60F
100
DictionaryVariables
280
     0
  1
1:1
  0
ENDSEC
  0
EOF
